Runner
爆風スランプ

EXTREME

Level: 7
BPM: 125
Notes: 532

1
口口口口 |----|
口①口口 |----|
口口②口 |----|
口③口口 |-①②③|
2
④⑤⑤④ |①-②-|
②⑥口② |-③--|
③口⑦③ |④--⑤|
①⑧口① |-⑥⑦⑧|
3
④⑤⑤④ |①-②-|
②⑥口② |-③--|
③口⑦③ |④--⑤|
①⑧口① |-⑥⑦⑧|
4
④口口④ |①-②-|
②口口② |-③--|
③口口③ |④--⑤|
①⑤⑤① |----|
5
口口④口 |①-②-|
口③口口 |-③④-|
口②②口
①口口①

口口口口
⑤口口⑤
⑥⑦口口 |⑤---|
口口口口 |⑥-⑦-|
6
口口口口 |①---|
口②③④ |②-③-|
口口①口 |④---|
⑤口口口 |--⑤-|
7
①口口③ |①---|
④⑤口口 |②---|
口口口口 |③---|
口口口② |④-⑤-|
8
口口口口 |①---|
口口①口 |②-③-|
②③口口
口口口口

口口口口
口⑤⑥⑦
口口④口 |④-⑤-|
口口口口 |⑥-⑦-|
9
口口口口 |①---|
口口口口 |②---|
口口口②
①口口口

口口口口
③口口口
④⑤口口 |③---|
④⑤口口 |④-⑤-|
10
口②③④ |①---|
口②③④ |②-③-|
口口①口 |④---|
⑤⑤①口 |--⑤-|
11
①①口口 |①---|
口口口口 |②---|
口口口②
口口口②

④⑤口③
④⑤口③
口口口口 |③---|
口口口口 |④-⑤-|
12
口口①口 |①---|
口口①口 |②-③-|
②③口口
②③口口

口⑤⑥⑦
口⑤⑥⑦
口口④口 |④-⑤-|
口口④口 |⑥-⑦-|
13
口③④口 |①---|
③⑤⑥③ |②---|
②⑦⑧② |③④⑤⑥|
①⑨⑩① |⑦⑧⑨⑩|
14
①口口① |①-②-|
口口口口 |③-④-|
③口口口
②口口④

⑧口口口
口⑥⑦口
口口口⑤ |⑤-⑥⑦|
口口口口 |--⑧-|
15
口⑥⑥⑤ |①-②-|
①口口④ |③-④-|
口②③口 |⑤--⑥|
口口口口 |----|
16
口口口口 |--①-|
口⑤⑥口 |②-③-|
②⑦⑦④ |④-⑤⑥|
①口口③ |--⑦-|
17
①口口① |①---|
②口口② |②---|
③口口③ |③---|
④口口④ |④---|
18
④口口④ |--①-|
③⑤⑥③ |②-③-|
⑦②②口 |④-⑤⑥|
口①①口 |--⑦-|
19
口口口口 |①-②-|
⑦口口⑥ |③-④-|
口①②口 |⑤--⑥|
口③④⑤ |--⑦-|
20
⑩口③口 |①-②③|
⑨①口⑧ |④-⑤-|
⑥口②⑦ |⑥-⑦⑧|
④口口⑤ |-⑨⑩-|
21
口⑦⑨口 |①-②-|
⑤⑥⑧口 |③-④-|
③口口④ |⑤-⑥⑦|
①口口② |-⑧⑨-|
22
口口口口 |--①-|
⑦②③口 |②-③-|
①⑤⑥④ |④-⑤⑥|
口②③口 |--⑦-|
23
口①②口 |①-②-|
口⑥⑥③ |③-④-|
口④⑤口 |⑤--⑥|
口口口口 |----|
24
口⑦⑦口 |--①-|
口口口口 |②-③-|
口⑤⑥口 |④-⑤⑥|
①②③④ |--⑦-|
25
①口口① |①---|
②口口② |②---|
④③③④ |③---|
③④④③ |④---|
26
①②③④ |--①-|
口⑤⑥口 |②-③-|
口口口口 |④-⑤⑥|
口⑦⑦口 |--⑦-|
27
口口口口 |①-②-|
口④④口 |③-④-|
②③③②
①口口①

⑦口口⑦
⑤口口⑤
口口口口 |⑤--⑥|
⑥口口⑥ |--⑦-|
28
⑩口口口 |①-②③|
⑨②③⑧ |④-⑤-|
⑥①①⑦ |⑥-⑦⑧|
④口口⑤ |-⑨⑩-|
29
口⑤⑥口 |①-②-|
口⑦⑧口 |③-④-|
③⑨⑩④ |⑤⑥⑦⑧|
①⑪⑫② |⑨⑩⑪⑫|
30
②③④口 |①-②-|
口口口口 |③-④-|
①口口①
口口口口

口口口⑤
口口口口
⑥口口⑦ |⑤--⑥|
口口口口 |--⑦-|
31
④口口④ |①---|
口②②口 |--②-|
③口口③ |③-④-|
口①①口 |----|
32
口⑥⑥口 |--①-|
口口口口 |②-③-|
①②③④ |④--⑤|
口⑤⑤口 |--⑥-|
33
④口口④ |①---|
③口口③ |②---|
②口口② |③---|
①口口① |④---|
34
口⑥⑥口 |--①-|
口口口口 |②-③-|
①②③④ |④--⑤|
口⑤⑤口 |--⑥-|
35
口口口口 |①---|
①口口① |--②③|
口②③口
口口口口

口口口口
⑥口口⑥
⑤口口⑤ |④--⑤|
④口口④ |--⑥-|
36
口①①口 |①-②-|
口③②口 |③-④-|
口⑤④口 |⑤-⑥⑦|
⑨⑧⑥⑦ |-⑧⑨-|
37
口①②口 |①②③④|
口③④口 |⑤⑥⑦⑧|
口⑤⑥口
口⑦⑧口

口口口口
⑨口口⑨
⑩⑪口口 |⑨---|
口口口口 |⑩-⑪-|
38
口口口口 |①---|
口②③④ |②-③-|
口口①口 |④---|
⑤口口口 |--⑤-|
39
①口口③ |①---|
④⑤口口 |②---|
口口口口 |③---|
口口口② |④-⑤-|
40
口口口口 |①---|
口口①口 |②-③-|
②③口口
口口口口

口口口口
口⑤⑥⑦
口口④口 |④-⑤-|
口口口口 |⑥-⑦-|
41
口口口口 |①---|
③口口口 |②---|
④⑤口② |③---|
①口口口 |④-⑤-|
42
口口口口 |①---|
口②③④ |②-③-|
口口①口 |④---|
⑤口口口 |--⑤-|
43
①口口③ |①---|
④⑤口口 |②---|
口口口口 |③---|
口口口② |④-⑤-|
44
口口口口 |①---|
口口①口 |②-③-|
②③口口
口口口口

口口口口
口⑤⑥⑦
口口④口 |④-⑤-|
口口口口 |⑥-⑦-|
45
口口口口 |①---|
口口口口 |②---|
口口口②
①口口口

口口口口
③口口口
④⑤口口 |③---|
④⑤口口 |④-⑤-|
46
口②③④ |①---|
口②③④ |②-③-|
口口①口 |④---|
⑤⑤①口 |--⑤-|
47
①①口口 |①---|
口口口口 |②---|
口口口②
口口口②

④⑤口③
④⑤口③
口口口口 |③---|
口口口口 |④-⑤-|
48
口口①口 |①---|
口口①口 |②-③-|
②③口口
②③口口

口⑤⑥⑦
口⑤⑥⑦
口口④口 |④-⑤-|
口口④口 |⑥-⑦-|
49
口口口口 |①---|
口口口口 |②---|
口②②口
①口口①

口口口口
口③③口
④⑤口口 |③---|
④⑤口口 |④-⑤-|
50
口②③④ |①---|
口②③④ |②-③-|
口口①口 |④---|
⑤⑤①口 |--⑤-|
51
①①口口 |①---|
口口口口 |②---|
口口口②
口口口②

④⑤口③
④⑤口③
口口口口 |③---|
口口口口 |④-⑤-|
52
口口①② |①-②-|
口口①② |③-④-|
③④口口
③④口口

口⑥⑦⑧
口⑥⑦⑧
口口⑤口 |⑤-⑥-|
口口⑤口 |⑦-⑧-|
53
口口口口 |①---|
③④口③ |②---|
②口⑤② |③---|
①⑥口① |-④⑤⑥|
54
④⑤⑤④ |①-②-|
②⑥口② |-③--|
③口⑦③ |④--⑤|
①⑧口① |-⑥⑦⑧|
55
④⑤⑤④ |①-②-|
②⑥口② |-③--|
③口⑦③ |④--⑤|
①⑧口① |-⑥⑦⑧|
56
④⑤⑤④ |①-②-|
②口口② |-③--|
③⑥⑦③ |④--⑤|
①口口① |--⑥⑦|
57
口口口口 |①-②-|
口①①口 |-③--|
②口口③
口②③口

口口口口
④⑥⑥⑤
口④⑤口 |④--⑤|
口口口口 |--⑥-|
58
①①①① |①---|
口口口口 |----|
口口口口 |----|
口口口口 |----|


不确定度: 0

最終更新:2013年03月23日 16:04