日進月歩
Jeepta

EXTREME

Level: 8
BPM: 185
Notes: 604

1
口口口口 |----|
口口口口 |----|
口口口口 |----|
口①②口 |--①②|
2
⑥④⑤⑦ |①-②-|
⑧②③口 |③-④-|
①口口① |⑤-⑥-|
口口口口 |⑦-⑧-|
3
口口口口 |①-②-|
口口口① |③-④-|
⑧②③口 |⑤-⑥-|
④⑥⑦⑤ |⑦-⑧-|
4
④⑧口⑤ |①-②-|
⑥②③⑦ |③-④-|
口口口① |⑤-⑥-|
口口口口 |⑦-⑧-|
5
口口①口 |①-②-|
⑧②③口 |③-④-|
④⑥⑦⑤ |⑤-⑥-|
口口口口 |⑦-⑧-|
6
②口⑧① |①-②③|
⑦口③口 |④---|
④口⑥口 |⑤-⑥⑦|
口⑤口口 |⑧---|
7
口②口① |①-②③|
口口⑧③ |④---|
⑦④口口 |⑤-⑥⑦|
⑤口⑥口 |⑧---|
8
口②口① |①-②③|
口口⑧③ |④---|
⑦④口口 |⑤-⑥⑦|
⑤口⑥口 |⑧---|
9
①口口② |①-②③|
口③⑧口 |④---|
⑦口口④ |⑤-⑥⑦|
口口⑥⑤ |⑧---|
10
③口口② |①-②-|
⑤口口⑧ |③-④-|
⑦口口⑥ |⑤-⑥-|
①口口④ |⑦-⑧-|
11
口口口② |①-②-|
③③口口 |--③-|
口④④口 |④---|
①口口口 |----|
12
②口口③ |①-②-|
⑧口口⑤ |③-④-|
⑥口口⑦ |⑤-⑥-|
④口口① |⑦-⑧-|
13
②口口口 |①-②-|
口口③③ |--③-|
口④④口 |④---|
口口口① |----|
14
③口口② |①-②-|
⑤口口⑧ |③-④-|
⑦口口⑥ |⑤-⑥-|
①口口④ |⑦-⑧-|
15
口口口② |①-②-|
③口③口 |--③-|
口④口④ |④---|
①口口口 |----|
16
②口口③ |①-②-|
⑧口口⑤ |③-④-|
⑥口口⑦ |⑤-⑥-|
④口口① |⑦-⑧-|
17
②口口口 |①-②-|
口③口③ |--③-|
④口④口 |④---|
口口口① |----|
18
③口②② |①-②-|
⑤口口⑧ |③-④-|
⑦口口⑥ |⑤-⑥-|
①①口④ |⑦-⑧-|
19
口口②② |①-②-|
口③④口 |--③-|
口④③口 |④---|
①①口口 |----|
20
②②口③ |①-②-|
⑧口口⑤ |③-④-|
⑥口口⑦ |⑤-⑥-|
④口①① |⑦-⑧-|
21
②②口口 |①-②-|
口口③口 |--③-|
口④③口 |④---|
口④①① |----|
22
③②口② |①-②-|
⑤口口⑧ |③-④-|
⑦口口⑥ |⑤-⑥-|
①口①④ |⑦-⑧-|
23
口②口② |①-②-|
口③④口 |--③-|
口④③口 |④---|
①口①口 |----|
24
②口②③ |①-②-|
⑧口口⑤ |③-④-|
⑥口口⑦ |⑤-⑥-|
④①口① |⑦-⑧-|
25
②口②口 |①-②-|
口④③口 |--③-|
口④③口 |④---|
口①口① |----|
26
⑤①①⑤ |----|
口口口口 |①---|
口②③④ |②-③-|
口口口口 |④-⑤-|
27
口③③口 |--①-|
④口口④ |--②-|
口口口口 |--③-|
①②②① |--④-|
28
口口口口 |--①-|
口口口口 |----|
①口口① |----|
②③口口 |②-③-|
29
口口口口 |--①-|
口口口口 |----|
口口口口 |--②-|
口③②① |③---|
30
④⑧⑧④ |①-②-|
⑥口口⑥ |③-④-|
③②①③ |⑤-⑥-|
⑤⑦⑦⑤ |⑦-⑧-|
31
口口口口 |①-②-|
口①①口 |--③-|
②③口②
③口口口

⑤口口口
口⑤口口
口口④口 |--④-|
口口口④ |--⑤-|
32
口口口① |--①-|
口口①口 |----|
口口口口 |----|
②③口口 |②-③-|
33
口口口口 |--①-|
口口口口 |----|
口口口口 |--②-|
口③②① |③---|
34
⑤①①⑤ |----|
口口口口 |①---|
口②③④ |②-③-|
口口口口 |④-⑤-|
35
口③③口 |--①-|
④口口④ |--②-|
口口口口 |--③-|
①②②① |--④-|
36
口口口口 |--①-|
口口口口 |----|
①口口① |----|
②③口口 |②-③-|
37
口口口口 |--①-|
口口口口 |----|
口口口口 |--②-|
口③②① |③---|
38
④⑥⑥④ |①-②-|
口口口口 |③---|
③②①③ |④---|
口⑤⑤口 |⑤-⑥-|
39
②口口③ |--①-|
②④口③ |--②-|
④①①口 |--③-|
口④口口 |--④-|
40
口口口口 |--①-|
口口①口 |----|
口口口① |----|
②③①口 |②-③-|
41
口口口口 |--①-|
口口口口 |----|
④口②口 |--②-|
口③口① |③-④-|
42
①⑤②④ |①-②-|
口③⑥口 |--③-|
口③⑥口 |④-⑤-|
①⑤②④ |--⑥-|
43
①⑤②④ |①-②-|
⑥③口⑥ |--③-|
口③口口 |④-⑤-|
①⑤②④ |--⑥-|
44
口口口口 |--①-|
口口口口 |----|
①口口① |----|
②口口口 |--②-|
45
口口口③ |①-②-|
口口口口 |--③-|
口⑤④口 |④-⑤-|
⑦①②⑥ |⑥-⑦-|
46
①④①④ |①--②|
⑤②⑤② |--③-|
③⑥③⑥ |④--⑤|
口口口口 |--⑥-|
47
①④①④ |①--②|
口②口② |--③-|
③⑥③⑥ |④--⑤|
口⑤口⑤ |--⑥-|
48
①口①口 |--①-|
①口①口 |----|
口口口口 |----|
口口口口 |----|
49
口④③口 |①---|
④④③③ |②---|
①①②② |③---|
口①②口 |④---|
50
口口口口 |----|
②口口① |----|
口口口口 |①---|
①口口③ |②-③-|
51
①①①口 |①---|
④③③④ |②---|
口②②② |③---|
口口口口 |④---|
52
口①①口 |①---|
口口口口 |②-③-|
③口口③
②口口②

⑤⑤⑤口
口口口口
口口口口 |--④-|
口④④口 |--⑤-|
53
口口口口 |----|
②②②口 |①---|
口口口③ |②---|
口口口① |③---|
54
①口口① |①---|
口口口口 |②-③-|
口②③口 |--④-|
④③②④ |----|
55
口①③口 |①---|
①口口③ |②---|
①④④③ |③---|
口②②口 |④---|
56
①口口① |①---|
口①①口 |②-③-|
口口口口
②口口③

⑤④④口
口口口口
口口口口 |--④-|
口口口口 |--⑤-|
57
口⑤⑤② |①-②-|
口①口② |----|
③口口④ |③-④-|
④口口③ |--⑤-|
58
口口口口 |----|
①口口③ |----|
口口②口 |①---|
口口口口 |②-③-|
59
口口口口 |①---|
口②④口 |②---|
①口口③ |③---|
①①③③ |④---|
60
口①①口 |①---|
②④④③ |②-③-|
⑤⑤⑤⑤ |--④-|
口口口口 |--⑤-|
61
②②②② |----|
口③③口 |①---|
口口口口 |②---|
口①①口 |③---|
62
③口口③ |①---|
①④④① |②-③-|
口④④口 |--④-|
②口口② |----|
63
口①②口 |①---|
③③③③ |②---|
④④④④ |③---|
口②①口 |④---|
64
①④④① |①---|
口口口口 |②-③-|
口口口口 |--④-|
②⑤口③ |--⑤-|
65
口口口⑤ |①-②-|
②④⑥① |--③-|
口⑥口口 |④-⑤-|
⑥口③口 |--⑥-|
66
①②③④ |--①-|
口口口③ |--②-|
口口口② |--③-|
口口口① |--④-|
67
③口口口 |①-②-|
⑤②②⑧ |③-④-|
⑦口口⑥ |⑤-⑥-|
①①口④ |⑦-⑧-|
68
口②口② |①-②-|
口③④口 |--③-|
口④③口 |④---|
①口①口 |----|
69
②口②③ |①-②-|
⑧口口⑤ |③-④-|
⑥口口⑦ |⑤-⑥-|
④①口① |⑦-⑧-|
70
②口②口 |①-②-|
口④③口 |--③-|
口④③口 |④---|
口①口① |----|
71
③②②② |①-②-|
⑤口口⑧ |③-④-|
⑦口口⑥ |⑤-⑥-|
①①①④ |⑦-⑧-|
72
口②②② |①-②-|
口③④口 |--③-|
口④③口 |④---|
①①①口 |----|
73
②②②③ |①-②-|
⑧口口⑤ |③-④-|
⑥口口⑦ |⑤-⑥-|
④①①① |⑦-⑧-|
74
③③①口 |①---|
口②①④ |②---|
③②①口 |③---|
口②④④ |④---|
75
口口口① |①-②-|
②口口口 |③-④-|
口口口③
④口口口

⑧⑧⑧⑧
口口⑤口
口⑥口口 |⑤-⑥-|
口口⑦口 |⑦-⑧-|


不确定度: 0

最終更新:2013年03月23日 20:38