only my railgun
fripSide

BASIC

Level: 3
BPM: 143
Notes: 219

1
口口口口 |----|
口口口口 |----|
口口口口 |----|
口口口口 |----|
2
口口口口 |①---|
口③④口 |②---|
口②①口 |③---|
口口口口 |④---|
3
口口口口 |①---|
口口口① |②---|
口口口② |③---|
口口④③ |④---|
4
口口口口 |①---|
④口口口 |②---|
③口口口 |③---|
②①口口 |④---|
5
①②③④ |①---|
口口口口 |②---|
口口口口 |③---|
口口口口 |④---|
6
口口口口 |①---|
口口口① |②---|
口口口② |③---|
口口④③ |④---|
7
口口口口 |①---|
④口口口 |②---|
③口口口 |③---|
②①口口 |④---|
8
口口口口 |①---|
口①②口 |②---|
口④③口 |③---|
口口口口 |④---|
9
口口口口 |①---|
口口口口 |----|
口口口口 |----|
口①①口 |----|
10
口口口口 |①---|
②②①① |----|
口口口口 |②---|
口口口口 |----|
11
口口口口 |①---|
口口口口 |----|
口①①口 |②---|
②口口③ |③---|
12
口口口口 |①---|
③口口④ |②---|
①口口② |③---|
口口口口 |④---|
13
②①①② |①---|
口口口口 |----|
口口口口 |②---|
口口口口 |----|
14
口口口口 |①---|
②②①① |----|
口口口口 |②---|
口口口口 |----|
15
口口口口 |①---|
口口口口 |----|
口①①口 |②---|
②③口口 |③---|
16
口口口口 |①---|
口口口口 |----|
②口口③ |②---|
口口①口 |③---|
17
口口口口 |①---|
口③④口 |②---|
口①②口 |③---|
口口口口 |④---|
18
口①①口 |①---|
②口口② |----|
口口口口 |②---|
口口口口 |----|
19
口口口口 |①---|
口口口口 |----|
①口口① |②---|
口②③口 |③---|
20
口口口口 |①---|
口③④口 |②---|
口①②口 |③---|
口口口口 |④---|
21
口口口口 |----|
口口口口 |----|
口口口口 |----|
口口口口 |----|
22
①口口① |①---|
②口口② |----|
口口口口 |②---|
口口口口 |----|
23
口口口口 |①---|
口口口口 |----|
①②②① |②---|
口口口口 |----|
24
口口口口 |①---|
口①①口 |----|
②口口② |②---|
口口口口 |----|
25
口口口口 |①---|
口③③口 |----|
口②②口 |②---|
①口口① |③---|
26
①①①① |①---|
口口口口 |----|
②③口口 |②---|
口口口口 |③---|
27
口口口口 |①---|
口口③② |----|
口口①口 |②---|
口口口口 |③---|
28
口②②口 |①---|
口①口口 |----|
口口口口 |②---|
口口口口 |----|
29
口口口口 |①---|
①口口① |----|
②口口② |②---|
口口口口 |----|
30
口口口口 |①---|
口口口口 |②---|
口③④口 |③---|
口①②口 |④---|
31
②口口② |①---|
口①①口 |----|
口口口口 |②---|
口口口口 |----|
32
口口口口 |①---|
③口口① |②---|
④口口② |③---|
口口口口 |④---|
33
口口口口 |①---|
口口口口 |----|
口①①口 |②---|
口②②口 |----|
34
口口口口 |①---|
口③②口 |②---|
④口口① |③---|
口口口口 |④---|
35
口口口口 |①---|
口口口口 |----|
口①①口 |②---|
口②②口 |----|
36
口口口口 |①---|
②口口② |----|
①口口① |②---|
口口口口 |----|
37
②①①② |①---|
口口口口 |----|
口口口口 |②---|
口口口口 |----|
38
口口口口 |①--②|
口口口口 |--③-|
口③③口 |----|
口②①口 |----|
39
口口口口 |①---|
②②①① |----|
口口口口 |②---|
口口口口 |----|
40
口口口口 |①---|
口口口口 |----|
口①①口 |②---|
②口口③ |③---|
41
口口口口 |①---|
③口口④ |②---|
①口口② |③---|
口口口口 |④---|
42
②①①② |①---|
口口口口 |----|
口口口口 |②---|
口口口口 |----|
43
口口口口 |①---|
②②①① |----|
口口口口 |②---|
口口口口 |----|
44
口口口口 |①---|
口口口口 |----|
口①①口 |②---|
②③口口 |③---|
45
口口口口 |①---|
②口口③ |----|
口口口口 |②---|
口口①口 |③---|
46
②口口② |①---|
口口口口 |----|
口①①口 |②---|
口口口口 |----|
47
口口口口 |①---|
②②①① |----|
口口口口 |②---|
口口口口 |----|
48
口口口口 |①---|
口口口口 |----|
口①①口 |②---|
②口口③ |③---|
49
口口口口 |①---|
③口口④ |②---|
①口口② |③---|
口口口口 |④---|
50
②①①② |①---|
口口口口 |----|
口口口口 |②---|
口口口口 |----|
51
口口口口 |①---|
②②①① |----|
口口口口 |②---|
口口口口 |----|
52
口口口口 |①---|
口口口口 |----|
口①①口 |②---|
②③口口 |③---|
53
口口口口 |①---|
口口口口 |----|
②口口③ |②---|
口口①口 |③---|
54
口口口口 |①---|
口③④口 |②---|
口①②口 |③---|
口口口口 |④---|
55
口①①口 |①---|
②口口② |----|
口口口口 |②---|
口口口口 |----|
56
口口口口 |①---|
口口口口 |----|
①口口① |②---|
口②③口 |③---|
57
③口口④ |①---|
口⑤⑤口 |②---|
口①②口 |③--④|
口口口口 |--⑤-|


不确定度: 0

最終更新:2013年01月24日 03:48