only my railgun
fripSide

ADVANCED

Level: 6
BPM: 143
Notes: 392

1
口口口口 |----|
口口口口 |----|
口口口口 |----|
口口口口 |----|
2
①口②口 |①---|
口③口④ |②---|
口口口口 |③---|
口口口口 |④---|
3
口口口口 |①---|
口口口口 |②---|
①口②口 |③---|
口③口④ |④---|
4
口①口② |①---|
③口④口 |②---|
口口口口 |③---|
口口口口 |④---|
5
口口口口 |①---|
口口口口 |②---|
口①口② |③---|
③口④口 |④---|
6
①③口② |①-②-|
⑤⑦口④ |③-④-|
口口口⑥ |⑤-⑥-|
口口口⑧ |⑦-⑧-|
7
口口②口 |①-②-|
口口④口 |③-④-|
①③⑥口 |⑤-⑥-|
⑤⑦⑧口 |⑦-⑧-|
8
①③口② |①-②-|
⑤⑦口④ |③-④-|
口口口⑥ |⑤-⑥-|
口口口⑧ |⑦-⑧-|
9
口口口口 |①---|
口口口口 |----|
口①①口 |--②-|
口②③④ |③-④-|
10
口口口口 |①-②③|
③②④① |--④-|
⑤⑧⑥⑦ |⑤-⑥⑦|
口口口口 |--⑧-|
11
③②口① |①-②③|
口口口⑧ |--④-|
⑦口口⑥ |⑤-⑥-|
⑤口口④ |⑦-⑧-|
12
①①②② |①---|
口口口口 |②---|
口口口口 |③---|
③③④④ |④---|
13
③③③③ |①--②|
口②②口 |--③-|
口①①口 |--④-|
口④⑤⑥ |⑤-⑥-|
14
口口口口 |①-②③|
③②④① |--④-|
⑤⑧⑥⑦ |⑤-⑥⑦|
口口口口 |--⑧-|
15
③②口① |①-②③|
口口口⑧ |--④-|
⑦口口⑥ |⑤-⑥-|
⑤口口④ |⑦-⑧-|
16
口口口口 |①---|
①口口口 |----|
口⑤④口 |②-③-|
口③②口 |④-⑤-|
17
口①①口 |①---|
口②②口 |②---|
③口口③ |③---|
④口口④ |④---|
18
⑧口②③ |①-②③|
口①口口 |--④-|
口口⑤④ |⑤-⑥⑦|
⑦⑥口口 |--⑧-|
19
口①口口 |①-②③|
口口②③ |----|
口口口口 |④---|
口④⑤口 |⑤---|
20
口口口口 |①---|
口③④口 |②---|
口①②口 |③---|
口口口口 |④---|
21
口口口口 |----|
口口口口 |----|
口口口口 |----|
口口口口 |----|
22
①①口口 |①---|
口口口口 |----|
②口口⑤ |②-③-|
口③④口 |④-⑤-|
23
口③②口 |①---|
④口口① |----|
⑤口口口 |②-③-|
口口口口 |④-⑤-|
24
②③④⑤ |①---|
口口口口 |----|
口口口口 |②-③-|
口①口口 |④-⑤-|
25
口口口口 |①-②-|
④③②① |③-④-|
⑤⑤⑤⑤ |⑤---|
⑥⑥⑥⑥ |⑥---|
26
①①①① |①---|
口口口口 |----|
②口口③ |②-③-|
口④⑤口 |④-⑤-|
27
口④⑤口 |①---|
②口口③ |----|
口①口口 |②-③-|
口口口口 |④-⑤-|
28
口口口口 |①---|
口①①口 |②---|
②③③⑥ |③-④-|
⑤口口④ |⑤-⑥-|
29
②口口口 |①---|
口口口③ |--②-|
口口口口 |③---|
口①①口 |----|
30
⑥口口口 |①-②③|
口④⑤⑦ |-④⑤-|
⑧②③口 |--⑥-|
①口口口 |⑦-⑧-|
31
口口⑥⑤ |①---|
③④口口 |②-③④|
口口口② |----|
口口口① |--⑤⑥|
32
⑦①口⑧ |①-②-|
口⑤⑥口 |③-④-|
③口④② |⑤⑥-⑦|
口口口口 |--⑧-|
33
口口口口 |①--②|
口口口口 |--③-|
口④④口 |④---|
口①②③ |----|
34
口口口① |①-②③|
⑥②③口 |-④⑤-|
口④⑤⑦ |--⑥-|
⑧口口口 |⑦-⑧-|
35
口口口口 |①---|
⑤口口口 |②-③④|
口③④口 |----|
口②②① |--⑤-|
36
②④口③ |①---|
口⑥⑤① |②-③-|
⑦口口口 |④-⑤⑥|
口口口口 |--⑦-|
37
口口口口 |①---|
口口口口 |--②③|
口口口① |④---|
②③④口 |----|
38
①口口② |①--②|
口①②口 |--③-|
口③③口 |--④-|
口④⑤⑥ |⑤-⑥-|
39
口口口口 |①-②③|
③②④① |--④-|
⑤⑧⑥⑦ |⑤-⑥⑦|
口口口口 |--⑧-|
40
③②口① |①-②③|
口口口⑧ |--④-|
⑦口口⑥ |⑤-⑥-|
⑤口口④ |⑦-⑧-|
41
①①②② |①---|
口口口口 |②---|
口口口口 |③---|
③③④④ |④---|
42
③③③③ |①--②|
口②②口 |--③-|
口①①口 |--④-|
口④⑤⑥ |⑤-⑥-|
43
口口口口 |①-②③|
③②④① |--④-|
⑤⑧⑥⑦ |⑤-⑥⑦|
口口口口 |--⑧-|
44
③②口① |①-②③|
口口口⑧ |--④-|
⑦口口⑥ |⑤-⑥-|
⑤口口④ |⑦-⑧-|
45
口口口口 |①---|
①口口口 |----|
口④⑤口 |②-③-|
口②③口 |④-⑤-|
46
①口口② |①--②|
口①②口 |--③-|
③口口③ |--④-|
口④⑤⑥ |⑤-⑥-|
47
口口口口 |①-②③|
③②④① |--④-|
⑤⑧⑥⑦ |⑤-⑥⑦|
口口口口 |--⑧-|
48
③②口① |①-②③|
口口口⑧ |--④-|
⑦口口⑥ |⑤-⑥-|
⑤口口④ |⑦-⑧-|
49
①①②② |①---|
口口口口 |②---|
口口口口 |③---|
③③④④ |④---|
50
③③③③ |①--②|
口②②口 |--③-|
口①①口 |--④-|
口④⑤⑥ |⑤-⑥-|
51
口口口口 |①-②③|
③②④① |--④-|
⑤⑧⑥⑦ |⑤-⑥⑦|
口口口口 |--⑧-|
52
③②口① |①-②③|
口口口⑧ |--④-|
⑦口口⑥ |⑤-⑥-|
⑤口口④ |⑦-⑧-|
53
口口口口 |①---|
①口口口 |----|
口⑤④口 |②-③-|
口③②口 |④-⑤-|
54
口①①口 |①---|
口②②口 |②---|
③口口③ |③---|
④口口④ |④---|
55
⑧口②③ |①-②③|
口①口口 |--④-|
口口⑤④ |⑤-⑥⑦|
⑦⑥口口 |--⑧-|
56
口①口口 |①-②③|
口口②③ |----|
口口口口 |④---|
口④⑤口 |⑤---|
57
⑤⑤⑤⑤ |①---|
③③④④ |②---|
口①②口 |③--④|
口口口口 |--⑤-|


不确定度: 0

最終更新:2013年01月24日 03:47