only my railgun
fripSide

EXTREME

Level: 8
BPM: 143
Notes: 558

1
口口口口 |----|
口口口口 |----|
口口口口 |----|
口口口口 |----|
2
④口口⑧ |①-②-|
⑤③⑦⑨ |③-④⑤|
口⑥②口 |--⑥-|
口口口① |⑦-⑧⑨|
3
口口口口 |--①-|
口①⑤口 |②-③④|
⑧⑥②④ |--⑤-|
⑦口口③ |⑥-⑦⑧|
4
③口口⑦ |--①-|
④②⑥⑧ |②-③④|
口⑤①口 |--⑤-|
口口口口 |⑥-⑦⑧|
5
口口口口 |--①-|
口①⑤口 |②-③④|
⑧⑥②④ |--⑤-|
⑦口口③ |⑥-⑦⑧|
6
③③⑦⑦ |--①-|
④②⑥⑧ |②-③④|
⑤⑤①① |--⑤-|
口口口口 |⑥-⑦⑧|
7
口口口口 |--①-|
①①⑤⑤ |②-③④|
⑧⑥②④ |--⑤-|
⑦⑦③③ |⑥-⑦⑧|
8
③③⑦⑦ |--①-|
④②⑥⑧ |②-③④|
口⑤①① |--⑤-|
口口口口 |⑥-⑦⑧|
9
口口口口 |①---|
口①口口 |----|
①口①口
口①口口

口口口口
口口口口
口②③口 |--②-|
口④口口 |③-④-|
10
口⑤①口 |①-②③|
⑤⑧④① |--④-|
②④⑧⑥ |⑤-⑥⑦|
③口口⑦ |--⑧-|
11
④口①口 |①-②③|
口口口① |--④-|
②口口口
③口④口

口⑧口⑤
⑥口口⑦
口⑤⑥口 |⑤-⑥-|
口⑦口⑧ |⑦-⑧-|
12
②④③② |①---|
口①②口 |②---|
①③④① |③---|
口③④口 |④---|
13
③口口③ |①--②|
②③③① |--③-|
②④⑤① |--④-|
②⑥口① |⑤-⑥-|
14
口⑤①口 |①-②③|
⑤⑧④① |--④-|
②④⑧⑥ |⑤-⑥⑦|
③口口⑦ |--⑧-|
15
口口①口 |①-②③|
口口口① |--④-|
②口口口
③④④口

口⑤⑦口
⑤⑧⑥⑦
口⑥⑧口 |⑤-⑥-|
口口口口 |⑦-⑧-|
16
口④②口 |①---|
②口口④ |----|
③口口⑤ |②-③-|
①⑤③① |④-⑤-|
17
①口口① |①---|
口②②口 |②---|
口③③口 |③---|
④口口④ |④---|
18
④①①④ |①-②③|
⑤⑧⑧⑤ |--④-|
②口口⑥ |⑤-⑥⑦|
口③⑦口 |--⑧-|
19
口口口口 |①-②③|
口口口口 |----|
④①①⑤ |④---|
②口口③ |⑤---|
20
口④④口 |①---|
①口口② |②---|
③⑤⑥③ |③-④-|
口⑦⑧口 |⑤⑥⑦⑧|
21
口口口口 |----|
口口口口 |----|
口口口口 |----|
口口口口 |----|
22
①①口口 |①-②-|
①②③④ |③-④-|
口口口口 |⑤-⑥-|
⑧⑦⑥⑤ |⑦-⑧-|
23
口口口口 |①-②-|
①①口口 |③-④-|
①②③④
口口口口

⑧口口⑤
口⑦⑥口
口口口口 |⑤-⑥-|
口口口口 |⑦-⑧-|
24
口⑦口⑤ |①-②-|
⑧口⑥口 |③-④-|
①①口口 |⑤-⑥-|
①②③④ |⑦-⑧-|
25
①口③口 |①-②-|
口②口④ |③-④-|
⑤⑤⑤⑤ |⑤---|
⑥⑥⑥⑥ |⑥---|
26
①④口① |①--②|
③①①⑤ |--③-|
⑥口口② |④-⑤-|
口口口⑦ |⑥-⑦-|
27
口口口⑦ |①--②|
⑥③②口 |--③-|
口口口⑤ |④-⑤-|
④①①口 |⑥-⑦-|
28
口①①口 |①---|
⑤口⑥④ |②---|
②口③③ |③-④-|
口口口口 |⑤-⑥-|
29
①口口① |①---|
口口口口 |--②-|
口②口口 |③--④|
④口③⑤ |--⑤-|
30
⑤口口③ |①-②③|
口④②⑥ |-④⑤-|
①口⑦口 |--⑥-|
口⑧口口 |⑦-⑧-|
31
口④④口 |①---|
口口口⑤ |②-③④|
①③⑥① |----|
口口②口 |--⑤⑥|
32
②口口③ |①-②-|
口口口⑦ |③-④-|
⑤⑥⑧④ |⑤⑥-⑦|
口口口① |--⑧-|
33
②口③③ |①--②|
②口口口 |--③-|
口口口④ |④---|
①①口④ |----|
34
口口④⑤ |①-②③|
口②③口 |-④⑤-|
①⑦口口 |--⑥-|
⑥口⑧口 |⑦-⑧-|
35
口口口口 |①---|
②⑤口① |②-③④|
口口③口 |----|
口口口④ |--⑤-|
36
口②③口 |①---|
口口①④ |②-③-|
⑤⑥口口 |④-⑤⑥|
口口⑦口 |--⑦-|
37
口口口口 |①---|
口②口口 |--②③|
口口③口 |④---|
口④口① |----|
38
②②①① |①--②|
②口口① |--③-|
③④⑤③ |--④-|
③⑥口③ |⑤-⑥-|
39
口⑤①口 |①-②③|
⑤⑧④① |--④-|
②④⑧⑥ |⑤-⑥⑦|
③口口⑦ |--⑧-|
40
④口①口 |①-②③|
口口口① |--④-|
②口口口
③口④口

口⑧口⑤
⑥口口⑦
口⑤⑥口 |⑤-⑥-|
口⑦口⑧ |⑦-⑧-|
41
②④③② |①---|
口①②口 |②---|
①③④① |③---|
口③④口 |④---|
42
③口口③ |①--②|
②③③① |--③-|
②④⑤① |--④-|
②⑥口① |⑤-⑥-|
43
口⑤①口 |①-②③|
⑤⑧④① |--④-|
②④⑧⑥ |⑤-⑥⑦|
③口口⑦ |--⑧-|
44
口口①口 |①-②③|
口口口① |--④-|
②口口口
③④④口

口⑤⑦口
⑤⑧⑥⑦
口⑥⑧口 |⑤-⑥-|
口口口口 |⑦-⑧-|
45
③口口② |①---|
口口口口 |----|
⑤口口④ |②-③-|
①口口① |④-⑤-|
46
口③②口 |①--②|
③②①口 |--③-|
口③②④ |--④-|
口⑤③⑥ |⑤-⑥-|
47
口⑤①口 |①-②③|
⑤⑧④① |--④-|
②④⑧⑥ |⑤-⑥⑦|
③口口⑦ |--⑧-|
48
④口①口 |①-②③|
口口口① |--④-|
②口口口
③口④口

口⑧口⑤
⑥口口⑦
口⑤⑥口 |⑤-⑥-|
口⑦口⑧ |⑦-⑧-|
49
②④③② |①---|
口①②口 |②---|
①③④① |③---|
口③④口 |④---|
50
③口口③ |①--②|
②③③① |--③-|
②④⑤① |--④-|
②⑥口① |⑤-⑥-|
51
口⑤①口 |①-②③|
⑤⑧④① |--④-|
②④⑧⑥ |⑤-⑥⑦|
③口口⑦ |--⑧-|
52
口口①口 |①-②③|
口口口① |--④-|
②口口口
③④④口

口⑤⑦口
⑤⑧⑥⑦
口⑥⑧口 |⑤-⑥-|
口口口口 |⑦-⑧-|
53
口④②口 |①---|
②口口④ |----|
③口口⑤ |②-③-|
①⑤③① |④-⑤-|
54
①口口① |①---|
口②②口 |②---|
口③③口 |③---|
④口口④ |④---|
55
④①①④ |①-②③|
⑤⑧⑧⑤ |--④-|
②口口⑥ |⑤-⑥⑦|
口③⑦口 |--⑧-|
56
口口口口 |①-②③|
口口口口 |----|
④①①⑤ |④---|
②口口③ |⑤---|
57
口③④口 |①---|
①⑤⑥② |②---|
口⑦⑧口 |③④⑤⑥|
⑨口口⑨ |⑦⑧⑨-|


不确定度: 0

最終更新:2013年01月24日 03:46