paparuwa
Fantastic Plastic Machine

ADVANCED

Level: 7
BPM: 131
Notes: 477

1
口口口口 |----|
口口口口 |----|
口口口口 |----|
口口口口 |----|
2
⑦口口⑦ |①---|
口⑥⑤口 |②---|
口④③口 |③④-⑤|
②口口① |⑥-⑦-|
3
口口①口 |----|
口②口口 |----|
口口③口 |--①②|
口④④口 |③-④-|
4
口④口③ |①-②-|
口口⑤② |③-④⑤|
口口口①
口口口口

口口口口
口口口口
⑧⑥口⑧ |⑥-⑦-|
口⑦⑦口 |--⑧-|
5
口②②口 |----|
①③③① |①---|
口口口口 |②---|
口口口口 |③---|
6
⑦口口⑦ |①---|
口⑤⑥口 |②---|
口③④口 |③④-⑤|
①口口② |⑥-⑦-|
7
口①口口 |----|
口口②口 |----|
口③口口 |--①②|
口④④口 |③-④-|
8
③口④口 |①-②-|
②⑤口口 |③-④⑤|
①口口口
口口口口

口口口口
口口口口
⑧口⑥⑧ |⑥-⑦-|
口⑦⑦口 |--⑧-|
9
口②②口 |----|
①③③① |①---|
口口口口 |②---|
口口口口 |③---|
10
⑦口口⑦ |①-②-|
⑧⑥⑤⑧ |③-④-|
口④③口 |⑤-⑥-|
口②①口 |⑦-⑧-|
11
口口口口 |①-②-|
⑤口口⑤ |③---|
④①②④ |④--⑤|
③口口③ |----|
12
④②①③ |①-②-|
⑥口口⑤ |③-④-|
口⑦⑦口 |⑤-⑥-|
口⑧⑧口 |⑦-⑧-|
13
口⑦⑦口 |①-②-|
③⑤⑥③ |③--④|
①口④② |-⑤⑥-|
口口口口 |⑦---|
14
⑦口口⑦ |①-②-|
⑧⑥⑤⑧ |③-④-|
口④③口 |⑤-⑥-|
口②①口 |⑦-⑧-|
15
口口口口 |①-②-|
⑤口口⑤ |③---|
④①②④ |④--⑤|
③口口③ |----|
16
④②①③ |①-②-|
⑥口口⑤ |③-④-|
口⑦⑦口 |⑤-⑥-|
口⑧⑧口 |⑦-⑧-|
17
口⑦⑦口 |①-②-|
③⑤⑥③ |③--④|
①口④② |-⑤⑥-|
口口口口 |⑦---|
18
②口口① |--①-|
口④口③ |-②--|
口⑥口⑤ |③④⑤⑥|
口口口⑦ |--⑦-|
19
⑧口⑦口 |①-②-|
⑩⑥⑨⑤ |③④⑤⑥|
口④口③ |--⑦⑧|
①②②口 |⑨⑩--|
20
口口口⑦ |--①-|
口⑥口⑤ |-②--|
口④口③ |③④⑤⑥|
①①②② |--⑦-|
21
①②②口 |①-②-|
口④口③ |③④⑤⑥|
⑩⑥⑨⑤ |--⑦⑧|
⑧口⑦口 |⑨⑩--|
22
②②①① |--①-|
口④口③ |-②--|
口⑥口⑤ |③④⑤⑥|
口口口⑦ |--⑦-|
23
⑧口⑦口 |①-②-|
⑩⑥⑨⑤ |③④⑤⑥|
口④口③ |--⑦⑧|
①②②口 |⑨⑩--|
24
口口口⑦ |--①-|
口⑥口⑤ |-②--|
口④口③ |③④⑤⑥|
①①②② |--⑦-|
25
①②②口 |①-②-|
⑩④⑨③ |③④⑤⑥|
⑧⑥⑦⑤ |--⑦⑧|
口口口口 |⑨⑩--|
26
⑦口口⑦ |①---|
口⑥⑤口 |②---|
口④③口 |③④-⑤|
②口口① |⑥-⑦-|
27
口口①口 |----|
口②口口 |----|
口口③口 |--①②|
口④④口 |③-④-|
28
口④口③ |①-②-|
口口⑤② |③-④⑤|
口口口①
口口口口

口口口口
口口口口
⑧⑥口⑧ |⑥-⑦-|
口⑦⑦口 |--⑧-|
29
口②②口 |----|
①③③① |①---|
口口口口 |②---|
口口口口 |③---|
30
⑦口口⑦ |①---|
口⑤⑥口 |②---|
口③④口 |③④-⑤|
①口口② |⑥-⑦-|
31
口①口口 |----|
口口②口 |----|
口③口口 |--①②|
口④④口 |③-④-|
32
③口④口 |①-②-|
②⑤口口 |③-④⑤|
①口口口
口口口口

口口口口
口口口口
⑧口⑥⑧ |⑥-⑦-|
口⑦⑦口 |--⑧-|
33
口②②口 |----|
①③③① |①---|
口口口口 |②---|
口口口口 |③---|
34
②②①① |--①-|
口④③口 |-②--|
口⑥⑤口 |③-④-|
口口口口 |⑤-⑥-|
35
④④③③ |①-②-|
口口口口 |----|
口口口口 |--③④|
②②①① |----|
36
口口口口 |--①-|
口①①口 |----|
②④③② |②-③④|
口口口口 |----|
37
口⑥⑤口 |--①-|
⑦④③⑦ |②-③④|
口口口口 |-⑤⑥-|
口②①口 |⑦---|
38
口⑥⑤口 |--①-|
口④③口 |-②--|
①①②② |③-④-|
口口口口 |⑤-⑥-|
39
口④③口 |①-②-|
口④③口 |----|
①①②② |--③④|
口口口口 |----|
40
口口口口 |--①-|
口口口口 |----|
口①①口 |②-③④|
②④③② |----|
41
③口口③ |①-②-|
口口⑤④ |③-④⑤|
口②①口
口口口口

口口口口
⑥⑦口口
口⑧⑧口 |-⑥⑦-|
口口口口 |⑧---|
42
②②①① |--①-|
口④口③ |-②--|
口口口口 |③④--|
口口口口 |----|
43
口口口口 |①-②-|
口口口口 |----|
口④口③ |--③④|
②②①① |----|
44
②②①① |--①-|
口口口③ |-②--|
口④口⑤ |③-④⑤|
口口口口 |----|
45
口口①口 |①②③-|
口②③口 |④---|
⑧④⑦口 |--⑤⑥|
⑥口⑤口 |⑦⑧--|
46
②②①① |--①-|
口④口③ |-②--|
口⑥口⑤ |③④⑤⑥|
口口口⑦ |--⑦-|
47
口口口口 |①-②-|
口⑥口⑤ |③④⑤⑥|
口④口③ |----|
①②②口 |----|
48
口口口⑦ |--①-|
口⑥口⑤ |-②--|
口④口③ |③④⑤⑥|
①①②② |--⑦-|
49
①②②口 |①-②-|
口④口③ |③④⑤⑥|
⑩⑥⑨⑤ |--⑦⑧|
⑧口⑦口 |⑨⑩--|
50
口②①口 |--①-|
②④③① |-②--|
口⑥⑤⑦ |③④⑤⑥|
口口口口 |--⑦-|
51
⑧⑩⑨⑦ |①-②-|
口⑥⑤口 |③④⑤⑥|
①④③口 |--⑦⑧|
口②②口 |⑨⑩--|
52
口口口⑦ |--①-|
④⑥②② |-②--|
①①⑤③ |③④⑤⑥|
口口口口 |--⑦-|
53
①②②口 |①-②-|
④⑥⑤③ |③④⑤⑥|
⑧⑩⑨⑦ |--⑦⑧|
口口口口 |⑨⑩--|
54
②②①① |--①-|
口④口③ |-②--|
口⑥口⑤ |③④⑤⑥|
口口口⑦ |--⑦-|
55
⑧口⑦口 |①-②-|
⑩⑥⑨⑤ |③④⑤⑥|
口④口③ |--⑦⑧|
①②②口 |⑨⑩--|
56
口口口⑦ |--①-|
口⑥口⑤ |-②--|
口④口③ |③④⑤⑥|
①①②② |--⑦-|
57
①②②口 |①-②-|
口④口③ |③④⑤⑥|
⑩⑥⑨⑤ |--⑦⑧|
⑧口⑦口 |⑨⑩--|
58
口①①口 |①---|
①口口① |----|
口口口口 |----|
口口口口 |----|


不确定度: 0

最終更新:2013年03月23日 13:48