Promise
NEW STRIKE ZIPPER

EXTREME

Level: 7
BPM: 160
Notes: 562

BPM: 158
1
口口口口 |----|
口口口口 |----|
口口口口 |----|
口口口口 |----|
2
①①口口 |①---|
口口口口 |----|
口口口口 |----|
口口口口 |----|
3
口口口口 |①---|
口口口口 |----|
口口口口 |----|
口口①① |----|

BPM: 161
4
①口①口 |①---|
口口口口 |----|
①口①口 |----|
口口口口 |----|

BPM: 160
5
口口口口 |①---|
口①口① |----|
②口②口 |②---|
口口口口 |----|
6
④⑦⑤③ |①-②-|
口口口口 |③-④-|
口口口口 |⑤-⑥-|
①⑥⑧② |⑦-⑧-|
7
口口口口 |①-②-|
⑦⑤④② |③-④-|
①③⑥⑧ |⑤-⑥-|
口口口口 |⑦-⑧-|
8
④⑦⑤③ |①-②-|
口口口口 |③-④-|
口口口口 |⑤-⑥-|
①⑥⑧② |⑦-⑧-|
9
口口口口 |①-②-|
①⑦⑥④ |③-④-|
③⑤⑧② |⑤-⑥-|
口口口口 |⑦-⑧-|
10
④⑦⑤③ |①-②-|
④口口③ |③-④-|
①口口② |⑤-⑥-|
①⑥⑧② |⑦-⑧-|
11
口口口口 |①-②-|
口口④② |③-④-|
①③口口
口口口口

口⑤口口
⑦⑤口⑧
口口⑥口 |⑤-⑥-|
口口⑥口 |⑦-⑧-|
12
④⑦⑤③ |①-②-|
口④③口 |③-④-|
①口口② |⑤-⑥-|
①⑥⑧② |⑦-⑧-|
13
口口口口 |①-②-|
①⑦⑥④ |③-④-|
③⑤⑧② |⑤-⑥-|
口口口口 |⑦-⑧-|
14
口口口口 |①---|
②口口口 |----|
口口口口 |②---|
③①①口 |③---|
15
口口口口 |①---|
口口①口 |②---|
口③口③ |----|
口口②口 |③---|
16
④①④① |①---|
口口口口 |--②-|
③口口口 |③---|
②口口口 |④---|
17
口①口① |①---|
口口口口 |②---|
③②口② |----|
④口口口 |③-④-|
18
④①①④ |--①-|
①口口① |--②-|
④②②④ |--③-|
口③③口 |--④-|
19
口口口口 |--①-|
口②①口 |②---|
口⑤口口 |--③-|
口③④口 |④-⑤-|
20
口口①① |①-②-|
口口②② |--③-|
口口口⑤ |--④-|
③③口④ |⑤---|
21
①①口口 |①-②-|
②②口口 |③-④-|
④④⑥⑤ |--⑤-|
③③口口 |⑥---|
22
口①①口 |----|
口口口口 |①---|
口②②口 |②---|
③③③③ |③---|
23
②②口口 |①---|
①口③① |--②-|
口口口口 |--③-|
口口④口 |④---|
24
口④②④ |----|
口口口口 |①---|
口口③口 |②-③-|
①口口口 |--④-|
25
③③口口 |--①-|
①口①口 |--②-|
口②口② |--③-|
④④口口 |④---|
26
④④①① |----|
口口口口 |①-②-|
口口②② |--③-|
③③口口 |--④-|
27
口④④口 |--①-|
口口②② |--②-|
口口①① |--③-|
③③口口 |--④-|
28
口口口口 |--①-|
口口口口 |--②-|
②口①①
②口口口

口口口口
口口口③
口④④口 |--③-|
口口口③ |--④-|
29
①口口① |--①-|
口②②口 |--②-|
口口口口 |----|
口口口口 |----|
30
口①①口 |----|
口口口口 |①---|
口②②口 |②---|
③口口③ |③---|
31
②②口口 |①---|
①口口① |--②-|
口口口口
口①①口

口口口口
口口③口
口口口口 |--③-|
口口④口 |④---|
32
口④②④ |----|
①口口口 |①---|
口口③口 |②-③-|
①口口口 |--④-|
33
③③口口 |--①-|
①口①口 |--②-|
④②口② |--③-|
⑤口口口 |④-⑤-|
34
④④①① |----|
①②口口 |①-②-|
口口②② |--③-|
③口口口 |--④-|
35
口④④④ |--①-|
口②②口 |--②-|
口口口口 |--③-|
③口①① |--④-|
36
口口口口 |--①-|
口口口口 |--②-|
口①①①
②②②口

口口口口
口口口③
口④④口 |--③-|
口口口口 |--④-|
37
①口口① |--①-|
口口口口 |--②-|
②口口② |----|
口②②口 |----|
38
④③②① |--①-|
口口口⑥ |②-③-|
口口口口 |④-⑤-|
⑤口口⑦ |⑥-⑦-|
39
⑥口口口 |--①-|
①②③④ |②-③-|
口口口口 |④-⑤-|
⑦口口⑤ |⑥-⑦-|
40
⑤口口⑥ |--①-|
口口口口 |②-③-|
④③②① |④-⑤-|
口口口⑦ |⑥-⑦-|
41
④④④④ |--①-|
①口口② |②---|
口③③口 |③---|
口③③口 |④---|
42
⑤⑤口口 |--①-|
⑤口②② |②---|
口④④② |--③-|
①口③③ |④-⑤-|
43
口④④① |--①-|
口口口口 |--②-|
口③③口 |--③-|
②⑤⑤口 |④-⑤-|
44
口口口② |--①-|
④口口口 |②---|
口口口③ |--③-|
①口口口 |④---|
45
②口口② |--①-|
口口口口 |②-③-|
口口口口
①③③①

口④④口
⑥口口⑥
口⑤⑤口 |④-⑤-|
⑦口口⑦ |⑥-⑦-|
46
口②②口 |①---|
口①①口 |②---|
②口口②
口口口口

③口口③
口④④口
口③③口 |③---|
④口口④ |④---|
47
②②口口 |①---|
①口口① |--②-|
口口口口
口①①口

口口口口
口口③口
口口口口 |--③-|
口口④口 |④---|
48
口④②④ |----|
①口口口 |①---|
口口③口 |②-③-|
①口口口 |--④-|
49
③③口口 |--①-|
①口①口 |--②-|
④②口② |--③-|
口口口口 |④---|
50
口④①口 |----|
④②口① |①-②-|
口口②口 |--③-|
③口口口 |--④-|
51
口口④口 |--①-|
口口②④ |--②-|
口②口① |--③-|
③口①口 |--④-|
52
口口口口 |--①-|
口①口口 |--②-|
②口①口
口②口口

口口口口
口口口口
口④④口 |--③-|
口口口③ |--④-|
53
①口口① |--①-|
口②②口 |--②-|
口口口口 |----|
口口口口 |----|
54
②①①② |----|
口③③口 |①---|
①②②① |②---|
③口口③ |③---|
55
②②口口 |①---|
①口口① |--②-|
①口口①
口①①口

口口口口
口口③口
口口口口 |--③-|
口口④口 |④---|
56
口④②④ |----|
①①口口 |①---|
口口③口 |②-③-|
①①口口 |--④-|
57
③③口口 |--①-|
①口①口 |--②-|
④②口② |--③-|
⑤口口口 |④-⑤-|
58
口④①口 |----|
④②口① |①-②-|
口口②口 |--③-|
③口口口 |--④-|
59
口口④口 |--①-|
口口②④ |--②-|
口②口① |--③-|
③口①口 |--④-|
60
口口口口 |--①-|
口①口口 |--②-|
②口①口
口②口口

口口口口
口口口口
口④④口 |--③-|
口口口③ |--④-|
61
①口口① |--①-|
口口口口 |--②-|
②口口② |----|
口②②口 |----|
62
①②口口 |①-②-|
③④口③ |③-④-|
⑦⑧⑦⑤ |⑤-⑥-|
⑤⑥口口 |⑦-⑧-|
63
③①口④ |①-②-|
④②①口 |③-④-|
⑥⑧口⑥ |⑤-⑥-|
⑤⑦口⑦ |⑦-⑧-|
64
①②口⑧ |①-②-|
③④口③ |③-④-|
⑦⑧口⑤ |⑤-⑥-|
⑤⑥口⑥ |⑦-⑧-|
65
③①口口 |①-②-|
④②②⑥ |③-④-|
⑥⑧④⑥ |⑤-⑥-|
⑤⑦口口 |⑦-⑧-|
66
①②⑧③ |①-②-|
③④口④ |③-④-|
⑦⑧口口 |⑤-⑥-|
⑤⑥口⑥ |⑦-⑧-|
67
③①⑧口 |①-②-|
④②口② |③-④-|
⑥⑧④口 |⑤-⑥-|
⑤⑦口⑥ |⑦-⑧-|
68
①②口口 |①-②-|
③④口② |③-④-|
⑦⑧④⑧ |⑤-⑥-|
⑤⑥口⑥ |⑦-⑧-|
69
③①②② |①-②-|
④②口口 |③-④-|
⑥⑧口口 |⑤-⑥-|
⑤⑦④④ |⑦-⑧-|
70
②口口② |①---|
口①①口 |②---|
口口口口
口口口口

BPM: 143.9

口口口口
⑤⑤⑤⑤
④④④④ |③---④-|
口③③口 |--⑤---|
71
①①①① |①---|
口口口口 |----|
口口口口 |----|
口口口口 |----|


不确定度: 0

最終更新:2013年03月23日 17:05