paparuwa
Fantastic Plastic Machine

BASIC

Level: 2
BPM: 131
Notes: 210

1
口口口口 |----|
口口口口 |----|
口口口口 |----|
口口口口 |----|
2
口口口口 |①---|
口口口口 |----|
口②①口 |②---|
口口口口 |----|
3
口口口口 |①---|
口①①口 |----|
口口口口 |----|
口口口口 |----|
4
口②①口 |①---|
口口口口 |----|
口口口口 |②---|
口口口口 |----|
5
口口口口 |①---|
口①①口 |----|
口②②口 |②---|
口口口口 |----|
6
口口口口 |①---|
口口口口 |----|
口口口口 |②---|
口②①口 |----|
7
口口口口 |①---|
口口口口 |----|
口①①口 |----|
口口口口 |----|
8
口口口口 |①---|
口②①口 |----|
口口口口 |②---|
口口口口 |----|
9
口口口口 |①---|
口口口口 |----|
口①①口 |②---|
口②②口 |----|
10
口口口口 |①---|
口④③口 |②---|
口②①口 |③---|
口口口口 |④---|
11
口②①口 |①---|
口④③口 |②---|
口口口口 |③---|
口口口口 |④---|
12
口口口口 |①---|
口口口口 |②---|
口②①口 |③---|
口④③口 |④---|
13
口④④口 |①---|
口③③口 |②---|
口②①口 |③---|
口口口口 |④---|
14
口口口① |①---|
口口口② |②---|
口口口③ |③---|
口口口④ |④---|
15
口口口口 |①---|
口口口口 |②---|
④口口口 |③---|
③②①口 |④---|
16
②③④口 |①---|
①口口口 |②---|
口口口口 |③---|
口口口口 |④---|
17
口口口口 |①---|
口②①口 |②---|
口③③口 |③---|
口④④口 |④---|
18
②②①① |①---|
口口口口 |----|
口口口口 |②---|
口口口口 |----|
19
口口口口 |①---|
④③②① |②---|
口口口口 |③---|
口口口口 |④---|
20
口口口口 |①---|
口口口口 |----|
②②①① |②---|
口口口口 |----|
21
口口口口 |①---|
口口口口 |②---|
口口口口 |③---|
④③②① |④---|
22
②②①① |①---|
口口口口 |----|
口口口口 |②---|
口口口口 |----|
23
口口口口 |①---|
④③②① |②---|
口口口口 |③---|
口口口口 |④---|
24
口口口口 |①---|
口口口口 |----|
②②①① |②---|
口口口口 |----|
25
口口口口 |①---|
口口口口 |②---|
口口口口 |③---|
④③②① |④---|
26
口口口口 |①---|
口口口口 |----|
口②①口 |②---|
口口口口 |----|
27
口口口口 |①---|
口①①口 |----|
口口口口 |----|
口口口口 |----|
28
口②①口 |①---|
口口口口 |----|
口口口口 |②---|
口口口口 |----|
29
口口口口 |①---|
口①①口 |----|
口②②口 |②---|
口口口口 |----|
30
口口口口 |①---|
口口口口 |----|
口口口口 |②---|
口②①口 |----|
31
口口口口 |①---|
口口口口 |----|
口①①口 |----|
口口口口 |----|
32
口口口口 |①---|
口②①口 |----|
口口口口 |②---|
口口口口 |----|
33
口口口口 |①---|
口口口口 |----|
口①①口 |②---|
口②②口 |----|
34
口口口口 |①---|
口口口口 |----|
②②①① |②---|
口口口口 |----|
35
口口口口 |①---|
②②①① |----|
口口口口 |②---|
口口口口 |----|
36
②②①① |①---|
口口口口 |----|
口口口口 |②---|
口口口口 |----|
37
口口口口 |①---|
口②①口 |②---|
口③③口 |③---|
口④④口 |④---|
38
口口口口 |①---|
①①②② |----|
口口口口 |②---|
口口口口 |----|
39
①①②② |①---|
口口口口 |----|
口口口口 |②---|
口口口口 |----|
40
口口口口 |①---|
①①②② |----|
口口口口 |②---|
口口口口 |----|
41
口口口口 |①---|
口①②口 |②---|
口③③口 |③---|
口④④口 |④---|
42
②②①① |①---|
口口口口 |----|
口口口口 |②---|
口口口口 |----|
43
口口口口 |①---|
②②①① |----|
口口口口 |②---|
口口口口 |----|
44
口口口口 |①---|
口口口口 |----|
②②①① |②---|
口口口口 |----|
45
口口口口 |①---|
口口口口 |②---|
口口口口 |③---|
④③②① |④---|
46
②口口① |①---|
②口口① |----|
口口口口 |②---|
口口口口 |----|
47
口②①口 |①---|
口④③口 |②---|
口口口口 |③---|
口口口口 |④---|
48
口口口口 |①---|
口口口口 |----|
②口口① |②---|
②口口① |----|
49
口口口口 |①---|
口口口口 |②---|
口②①口 |③---|
口④③口 |④---|
50
②②①① |①---|
口口口口 |----|
口口口口 |②---|
口口口口 |----|
51
口口口口 |①---|
④③②① |②---|
口口口口 |③---|
口口口口 |④---|
52
口口口口 |①---|
口口口口 |----|
②②①① |②---|
口口口口 |----|
53
口口口口 |①---|
口口口口 |②---|
口口口口 |③---|
④③②① |④---|
54
②口口① |①---|
②口口① |----|
口口口口 |②---|
口口口口 |----|
55
口②①口 |①---|
口④③口 |②---|
口口口口 |③---|
口口口口 |④---|
56
口口口口 |①---|
口口口口 |----|
②口口① |②---|
②口口① |----|
57
口口口口 |①---|
口口口口 |②---|
口②①口 |③---|
口④③口 |④---|
58
口口口口 |①---|
口①①口 |----|
口口口口 |----|
口口口口 |----|


不确定度: 0

最終更新:2013年03月23日 13:48