paparuwa
Fantastic Plastic Machine

EXTREME

Level: 8
BPM: 131
Notes: 594

1
口口口口 |----|
口口口口 |----|
口口口口 |----|
口口口口 |----|
2
口①①口 |①---|
口口口口 |②---|
②口口②
口口口口

④口口③
⑥口口⑤
⑦口口⑦ |③④-⑤|
口⑦⑦口 |⑥-⑦-|
3
③③④④ |----|
口口口口 |----|
口①②口 |--①②|
口口口口 |③-④-|
4
④⑤口口 |①-②-|
口③②① |③-④⑤|
口口口口
口③②①

口口⑥口
⑦⑧⑧⑦
⑧口口⑧ |⑥-⑦-|
口口口口 |--⑧-|
5
口口口口 |----|
③口口③ |①---|
②口口② |②---|
①口口① |③---|
6
口①①口 |①---|
口①①口 |②---|
②口口②
口口口口

③口口④
⑤口口⑥
⑦口口⑦ |③④-⑤|
口⑦⑦口 |⑥-⑦-|
7
④④③③ |----|
口口口口 |----|
口②①口 |--①②|
口口口口 |③-④-|
8
口口⑤④ |①-②-|
①②③口 |③-④⑤|
口口口口
①②③口

口⑥口口
⑦⑧⑧⑦
⑧口口⑧ |⑥-⑦-|
口口口口 |--⑧-|
9
口④④口 |----|
③口口③ |①---|
②口口② |②---|
①口口① |③-④-|
10
口⑩⑩口 |①-②-|
口⑧⑤口 |③④⑤-|
⑨④⑦⑨ |⑥⑦⑧-|
①⑥③② |⑨-⑩-|
11
④口口④ |①②③-|
⑤口③⑤ |④---|
⑦②口⑥ |⑤--⑥|
口口①⑧ |-⑦-⑧|
12
口①②③ |①②③-|
口口口口 |④⑤⑥⑦|
口⑥⑦口
口④⑤口

⑪⑩口⑪
口⑧⑨口
口口口口 |⑧⑨⑩-|
⑫口口⑫ |⑪-⑫-|
13
⑦⑤⑤⑥ |①②③-|
⑦⑧⑧⑥ |④--⑤|
①②③口 |-⑥⑦-|
口④④口 |⑧---|
14
口⑩⑩口 |①-②-|
口⑤⑧口 |③④⑤-|
⑨⑦④⑨ |⑥⑦⑧-|
②③⑥① |⑨-⑩-|
15
④口口④ |①②③-|
⑤③口⑤ |④---|
⑥口②⑦ |⑤--⑥|
⑧①口口 |-⑦-⑧|
16
③②①口 |①②③-|
口口口口 |④⑤⑥⑦|
口⑦⑥口
口⑤④口

⑪口⑩⑪
口⑨⑧口
口口口口 |⑧⑨⑩-|
⑫口口⑫ |⑪-⑫-|
17
⑥⑤⑤⑦ |①②③-|
⑥⑧⑧⑦ |④--⑤|
口③②① |-⑥⑦-|
口④④口 |⑧---|
18
口②①② |--①-|
口口口口 |-②--|
口口①口
口口口口

③口⑦口
口口④口
⑤口⑦口 |③④⑤⑥|
口口⑥口 |--⑦-|
19
③①⑩① |①-②-|
⑨口④口 |③④⑤⑥|
⑤口⑧口 |--⑦⑧|
⑦②⑥② |⑨⑩--|
20
③口⑦口 |--①-|
口①④口 |-②--|
⑤②⑦② |③④⑤⑥|
口①⑥口 |--⑦-|
21
③①⑩① |①-②-|
⑨口④口 |③④⑤⑥|
⑤口⑧口 |--⑦⑧|
⑦②⑥② |⑨⑩--|
22
口⑦口③ |--①-|
口④①口 |-②--|
②⑦②⑤ |③④⑤⑥|
口⑥①口 |--⑦-|
23
①⑩①③ |①-②-|
口④口⑨ |③④⑤⑥|
口⑧口⑤ |--⑦⑧|
②⑥②⑦ |⑨⑩--|
24
口⑦口③ |--①-|
口④①口 |-②--|
②⑦②⑤ |③④⑤⑥|
口⑥①口 |--⑦-|
25
①⑩①③ |①-②-|
口④口⑨ |③④⑤⑥|
口⑧口⑤ |--⑦⑧|
②⑥②⑦ |⑨⑩--|
26
口口口口 |①---|
口①①口 |②---|
②口口②
口口口口

④口口③
⑥口口⑤
⑦口口⑦ |③④-⑤|
口⑦⑦口 |⑥-⑦-|
27
③③④④ |----|
口口口口 |----|
口①②口 |--①②|
口口口口 |③-④-|
28
④⑤口口 |①-②-|
口③②① |③-④⑤|
口口口口
口③②①

口口⑥口
⑦⑧⑧⑦
⑧口口⑧ |⑥-⑦-|
口口口口 |--⑧-|
29
口口口口 |----|
③口口③ |①---|
②口口② |②---|
①口口① |③---|
30
口①①口 |①---|
口①①口 |②---|
②口口②
口口口口

③口口④
⑤口口⑥
⑦口口⑦ |③④-⑤|
口⑦⑦口 |⑥-⑦-|
31
④④③③ |----|
口口口口 |----|
口②①口 |--①②|
口口口口 |③-④-|
32
口口⑤④ |①-②-|
①②③口 |③-④⑤|
口口口口
①②③口

口⑥口口
⑦⑧⑧⑦
⑧口口⑧ |⑥-⑦-|
口口口口 |--⑧-|
33
口口口口 |----|
③口口③ |①---|
②口口② |②---|
①口口① |③---|
34
口④①④ |--①②|
口口口口 |③④--|
口口①口
②③口口

口口口口
口口口口
口⑥口⑦ |⑤-⑥-|
口⑧口⑤ |⑦-⑧-|
35
②口口④ |①-②③|
口①口① |-④--|
②⑥③口 |--⑤⑥|
⑦口口⑤ |⑦---|
36
口⑦⑧② |①-②-|
④①口⑥ |----|
口⑤口② |③④⑤⑥|
口③口③ |-⑦-⑧|
37
口⑦⑦口 |--①-|
口⑥⑤口 |②-③④|
②④③口 |-⑤⑥-|
①口口① |⑦---|
38
②口口口 |--①-|
口③口口 |②③④⑤|
④①口①
口③⑤口

⑨口口⑥
⑦口口⑧
口口口口 |⑥-⑦-|
口口口口 |⑧-⑨-|
39
口口①口 |①-②-|
口④口口 |----|
口口①③ |--③④|
口②⑤② |⑤---|
40
口口②口 |①-②-|
口口口① |----|
口口②口
口口口口

口⑤口口
口口口④
口口口口 |③-④⑤|
口口口③ |----|
41
口⑨⑨口 |①②③-|
口⑧⑦口 |④-⑤⑥|
④⑥⑤④ |-⑦⑧-|
口①②③ |⑨---|
42
口⑥口③ |--①-|
口④口口 |-②--|
口⑥②⑤ |③④⑤-|
口口①口 |--⑥-|
43
①口①③ |①-②-|
口④口⑦ |③④--|
口⑦⑤⑤ |⑤-⑥⑦|
②口②⑥ |----|
44
口⑦口③ |--①-|
口④①口 |-②--|
②⑥②⑤ |③④⑤⑥|
口口①口 |--⑦-|
45
口⑩⑩⑪ |①②③-|
口⑧⑦口 |④-⑤⑥|
④⑥⑤⑨ |-⑦⑧⑨|
口①②③ |⑩⑪--|
46
口⑦口③ |--①-|
①④口口 |-②--|
②⑦②⑤ |③④⑤⑥|
①⑥口口 |--⑦-|
47
①口①③ |①-②-|
口④口口 |③④⑤⑥|
口口口⑤ |----|
②⑥②口 |----|
48
③口⑦口 |--①-|
口①④口 |-②--|
⑤②⑦② |③④⑤⑥|
口①⑥口 |--⑦-|
49
③①⑩① |①-②-|
⑨口④口 |③④⑤⑥|
⑤口⑧口 |--⑦⑧|
⑦②⑥② |⑨⑩--|
50
③口⑤口 |--①-|
口①②① |-②--|
⑦④⑦⑥ |③④⑤⑥|
口口②口 |--⑦-|
51
③⑨⑤⑦ |①-②-|
①口口② |③④⑤⑥|
⑩④⑧⑥ |--⑦⑧|
①口口② |⑨⑩--|
52
口⑤口③ |--①-|
①②①口 |-②--|
⑥⑦④⑦ |③④⑤⑥|
口②口口 |--⑦-|
53
⑦⑤⑨③ |①-②-|
②口口① |③④⑤⑥|
⑥⑧④⑩ |--⑦⑧|
②口口① |⑨⑩--|
54
口⑦口③ |--①-|
口④①口 |-②--|
②⑦②⑤ |③④⑤⑥|
口⑥①口 |--⑦-|
55
①⑩①③ |①-②-|
口④口⑨ |③④⑤⑥|
口⑧口⑤ |--⑦⑧|
②⑥②⑦ |⑨⑩--|
56
③口⑦口 |--①-|
口①④口 |-②--|
⑤②⑦② |③④⑤⑥|
口①⑥口 |--⑦-|
57
③①⑩① |①-②-|
⑨口④口 |③④⑤⑥|
⑤口⑧口 |--⑦⑧|
⑦②⑥② |⑨⑩--|
58
①口口① |①---|
口①①口 |----|
①口口① |----|
口口口口 |----|


不确定度: 0

最終更新:2013年03月23日 13:47