NEU!
√thumm

BASIC

Level: 2
BPM: 133
Notes: 238

1
口口口口 |----|
口口口口 |----|
口口口口 |----|
口口口口 |----|
2
口口口口 |①---|
口口口④ |②---|
①②③口 |③---|
口口口口 |④---|
3
口口口口 |①---|
②口①口 |----|
口口口口 |②---|
口口口口 |----|
4
口口口口 |①---|
口口口口 |②---|
口口④③ |③---|
口①②口 |④---|
5
口口口口 |①---|
口口口口 |②---|
②①口口 |----|
口口口口 |----|
6
口口口口 |①---|
口③④口 |②---|
口①②口 |③---|
口口口口 |④---|
7
口口口口 |①---|
②口口口 |----|
①口口口 |②---|
口口口口 |----|
8
①口口② |①---|
口口口口 |②---|
口③④口 |③---|
口口口口 |④---|
9
口口口口 |①---|
口④④口 |②---|
①口口② |③---|
口口口③ |④---|
10
①口口② |①---|
③口口④ |②---|
口口口口 |③---|
口口口口 |④---|
11
口口口口 |①---|
口口口口 |②---|
①口口② |③---|
③口口④ |④---|
12
口①②口 |①---|
口③④口 |②---|
口口口口 |③---|
口口口口 |④---|
13
口口口口 |①---|
口④④口 |②---|
①口口② |③---|
③口口口 |④---|
14
口口口口 |①---|
②口口③ |②---|
口④口① |③---|
口口口口 |④---|
15
口④口口 |①---|
口②③口 |②---|
口口①口 |③---|
口口口口 |④---|
16
口口①口 |①---|
口口口口 |②---|
口口口口 |③---|
④②③口 |④---|
17
口口口口 |①---|
口③③口 |----|
口口口口 |②---|
口②口① |③---|
18
①口口② |①---|
③口口④ |②---|
口口口口 |③---|
口口口口 |④---|
19
口口口口 |①---|
口口口口 |②---|
①口口② |③---|
③口口④ |④---|
20
口口口口 |①---|
③口口③ |②---|
④口口④ |③---|
口①②口 |④---|
21
口口口口 |①---|
口③③口 |----|
口口口口 |②---|
①口②① |③---|
22
③口口口 |①---|
口④口口 |②---|
口①口口 |③---|
②口口口 |④---|
23
口③④口 |①---|
口口口口 |②---|
口口①口 |③---|
口口口② |④---|
24
④口口④ |①---|
③口口③ |②---|
②口口② |③---|
①口口① |④---|
25
口口口口 |①---|
口口口口 |----|
口①①口 |----|
口口口口 |----|
26
口口口口 |①---|
口口口② |----|
口口口口 |②---|
①口口口 |----|
27
口口口口 |①---|
①口口口 |----|
口口口口 |②---|
口口口② |----|
28
口口口口 |①---|
口口口③ |----|
口口口口 |②---|
口①②口 |③---|
29
口口口口 |①---|
③②①口 |②---|
④口口口 |③---|
口口口口 |④---|
30
口口口口 |①---|
口口口口 |----|
口①口口 |②---|
口口口② |----|
31
口口口口 |①---|
①口口② |----|
口口口口 |②---|
口口口口 |----|
32
口口口口 |①---|
②③口口 |----|
口口口口 |②---|
①口口口 |③---|
33
口口口口 |①---|
口口①② |②---|
口口④③ |③---|
口口口口 |④---|
34
口口口口 |①---|
口口口口 |----|
②①口口 |②---|
口口口口 |----|
35
口口口口 |①---|
口口口口 |----|
口②口① |②---|
口口口口 |----|
36
口口口口 |①---|
口②口口 |----|
口口①口 |②---|
口口口口 |----|
37
口②口口 |①---|
口口①口 |----|
口口口口 |②---|
口口口口 |----|
38
口口①口 |①---|
口口口口 |----|
口口口口 |②---|
②口口口 |----|
39
口口口口 |①---|
口口口口 |----|
②口口口 |②---|
口口口① |----|
40
口口口口 |①---|
②口口口 |----|
口口口① |②---|
口口口口 |----|
41
口口口口 |①---|
口口口① |----|
口②口口 |②---|
口口口口 |----|
42
口口口口 |①---|
口②口口 |----|
口口①口 |②---|
口口口口 |----|
43
②口口口 |①---|
口口①口 |----|
口口口口 |②---|
口口口口 |----|
44
口口口① |①---|
口口口口 |----|
口口口口 |②---|
②口口口 |----|
45
口口口口 |①---|
口口口口 |----|
②口口口 |②---|
口①口口 |----|
46
口口口口 |①---|
口口口口 |----|
口①口口 |②---|
口口②口 |----|
47
口口口口 |①---|
口口口口 |----|
口口②口 |②---|
口口口① |----|
48
口口口口 |①---|
②口口口 |----|
口口口① |②---|
口口口口 |----|
49
口口口口 |①---|
③③口① |----|
口口口口 |②---|
口口②口 |③---|
50
口口口① |①---|
口口口② |②---|
口口口③ |③---|
口口口④ |④---|
51
口口①口 |①---|
口口②口 |②---|
口口③口 |③---|
口口④口 |④---|
52
①①口口 |①---|
②②口口 |②---|
③③口口 |③---|
④④口口 |④---|
53
口口口口 |①---|
口口③③ |----|
口口口口 |②---|
口②①① |③---|
54
①口口口 |①---|
②口口口 |②---|
③口口口 |③---|
④口口口 |④---|
55
口①口口 |①---|
口②口口 |②---|
口③口口 |③---|
口④口口 |④---|
56
口口①① |①---|
口口②② |②---|
口口③③ |③---|
口口④④ |④---|
57
口②②口 |①---|
口口口口 |----|
③口口③ |②---|
①①口口 |③---|
58
①口口口 |①---|
口②口口 |②---|
口口③口 |③---|
口口口④ |④---|
59
口口口① |①---|
口口②口 |②---|
口③口口 |③---|
④口口口 |④---|
60
口口口口 |①---|
口③③口 |②---|
④②②④ |③---|
口①①口 |④---|
61
口口口口 |①---|
①口口① |----|
口口口口
口口口口

口口口口
③口口③
口口口口 |②---|
口②②口 |③---|
62
口口口④ |①---|
口口口③ |②---|
口口口② |③---|
口口口① |④---|
63
①口口口 |①---|
②口口口 |②---|
③口口口 |③---|
④口口口 |④---|
64
口②②口 |①---|
口①①口 |②---|
口④④口 |③---|
口③③口 |④---|
65
口口口口 |①---|
①口口① |----|
口②②口 |----|
口口口口 |②---|


不确定度: 0

最終更新:2013年01月24日 03:44