NEU!
√thumm

ADVANCED

Level: 7
BPM: 133
Notes: 524

1
口口口口 |----|
口口口口 |----|
口口口口 |----|
口口口口 |----|
2
口口③口 |①-②-|
口②口④ |③-④-|
①口口口
口口口口

口口口⑥
口口口口
⑤口口口 |--⑤-|
口口口口 |--⑥-|
3
口③口口 |①---|
②口①口 |②-③-|
口口口口 |----|
口口口口 |----|
4
口口⑥口 |①-②-|
口口③口 |③-④-|
⑤②口④ |--⑤-|
①口口口 |--⑥-|
5
口口口口 |①---|
口口口① |②-③-|
口口口口 |----|
③②口口 |----|
6
④⑥④⑥ |①-②-|
口③口③ |③-④-|
②⑤②⑤ |--⑤-|
口①口① |--⑥-|
7
口口①口 |①---|
③口口① |②-③-|
②③口口 |----|
口②口口 |----|
8
①口①口 |①-②-|
⑤②⑤② |③-④-|
③口③口 |--⑤-|
⑥④⑥④ |--⑥-|
9
口⑤口④ |①---|
⑤②④② |②---|
②④②③ |③-④-|
口①③① |⑤---|
10
口口口② |①---|
口口②④ |②---|
③口④口 |③---|
①口口口 |④---|
11
③口口口 |①---|
①口口口 |②---|
口口④② |③---|
口口②④ |④---|
12
口①③口 |①---|
口口口口 |②---|
口口④② |③---|
口④②口 |④---|
13
口口口① |①---|
③口口口 |----|
②口口口 |②---|
口口口口 |③---|
14
口口口口 |①---|
口口②口 |②---|
口④①口 |③---|
口③口口 |④---|
15
口③③口 |①---|
口口口口 |②---|
口④④② |③---|
口口口① |④---|
16
口③③口 |①---|
口②②口 |②---|
口④④口 |③---|
口①①口 |④---|
17
口②②口 |①---|
③口口③ |----|
口④④口 |②-③-|
口①①口 |④---|
18
口③②口 |①---|
③③②② |②---|
①口口④ |③---|
①①④④ |④---|
19
②口口① |①---|
④②①③ |②---|
④①②③ |③---|
④口口③ |④---|
20
④②②口 |①---|
④②①③ |②---|
④①①③ |③---|
口口口③ |④---|
21
口③②② |①---|
口②③③ |----|
口口口口 |②---|
口①①口 |③---|
22
口④③口 |①---|
口②④③ |②---|
①口②④ |③---|
口①口口 |④---|
23
口口④④ |①---|
①③③④ |②---|
②①③口 |③---|
②②①口 |④---|
24
④③口口 |①---|
③③②口 |②---|
④②②① |③---|
口口①① |④---|
25
口口口① |①---|
口口口口 |----|
口口口① |--②-|
口②③口 |③---|
26
⑥④②口 |①-②-|
口⑤③① |③-④-|
口口⑧口 |⑤-⑥-|
口口口⑦ |⑦-⑧-|
27
口⑥⑧口 |①-②-|
⑤⑦口口 |③-④-|
④②口口 |⑤-⑥-|
口③①口 |⑦-⑧-|
28
口口口② |①-②-|
口口①口 |③-④-|
口④口口
③口口口

口口口口
口口⑧⑥
口口口口 |⑤-⑥-|
口口⑦⑤ |⑦-⑧-|
29
口口口口 |①-②-|
口②口④ |③-④-|
口口口口
口①口③

口口口口
口⑧⑥口
口口口口 |⑤-⑥-|
口⑦⑤口 |⑦-⑧-|
30
口④④① |①-②-|
口口口① |③-④-|
②口口口
②口③③

口口口口
⑤⑤⑧⑧
⑦⑦⑥⑥ |⑤-⑥-|
口口口口 |⑦-⑧-|
31
③③②② |①-②-|
口口口口 |③-④-|
口口口口
①①④④

口口⑦口
⑤⑦口⑥
⑤口⑧⑥ |⑤-⑥-|
口⑧口口 |⑦-⑧-|
32
口②口③ |①-②-|
口口②口 |③-④-|
口①口④
口口①口

⑤⑦口口
口口口口
⑥⑧口口 |⑤-⑥-|
口口口口 |⑦-⑧-|
33
③口①口 |①-②-|
口口口口 |③-④-|
④口②口
口口口口

口⑤⑦口
口口口口
口⑥⑧口 |⑤-⑥-|
口口口口 |⑦-⑧-|
34
③口口口 |①-②-|
口⑤口⑤ |--③-|
②口口口 |--④-|
①④口④ |--⑤-|
35
③口口口 |①-②-|
口⑤口④ |--③-|
②口口口 |--④-|
①⑤口④ |--⑤-|
36
③口④口 |①-②-|
口⑤口④ |--③-|
②口口口 |--④-|
①口口⑤ |--⑤-|
37
③⑤口口 |①-②-|
口口口口 |--③-|
②④口口 |--④-|
①口口口 |--⑤-|
38
口口⑤③ |①-②-|
口口口口 |--③-|
口口④② |--④-|
口口口① |--⑤-|
39
②①口口 |①-②-|
④口口口 |--③-|
口口③口 |--④-|
口口⑤口 |--⑤-|
40
①口⑤口 |①-②-|
口②④口 |--③-|
口口口口 |--④-|
口口口③ |--⑤-|
41
④口⑤① |①-②-|
④口⑤① |--③-|
②口③口 |--④-|
②口③口 |--⑤-|
42
④口⑤① |①-②-|
口口口② |--③-|
④口⑤口 |--④-|
口口口③ |--⑤-|
43
⑤口⑤口 |①-②-|
口①口② |--③-|
④口④口 |--④-|
口口口③ |--⑤-|
44
口口口① |①-②-|
⑤口口② |--③-|
口⑤口口 |--④-|
④口口③ |--⑤-|
45
①口口② |①-②-|
⑤口口口 |--③-|
⑤⑤①③ |--④-|
口口④口 |--⑤-|
46
①⑤口② |①-②-|
口⑤口口 |--③-|
口⑤①③ |--④-|
口口④口 |--⑤-|
47
口口①口 |①-②-|
口口①口 |--③-|
口口①口
口③口②

口口口口
口⑤⑤⑤
④口口口 |--④-|
口口口口 |--⑤-|
48
口口口口 |①-②-|
③口口口 |--③-|
口①①①
②口口口

口④口口
口口口口
口口⑤口 |--④-|
口口口口 |--⑤-|
49
口④④口 |①-②-|
⑤③③⑤ |--③-|
口⑥⑥口 |④-⑤-|
②①②① |⑥---|
50
口③②口 |①---|
③③②② |②---|
①口口④ |③---|
①①④④ |④---|
51
②口口① |①---|
④②①③ |②---|
④①②③ |③---|
④口口③ |④---|
52
④②②口 |①---|
④②①③ |②---|
④①①③ |③---|
口口口③ |④---|
53
口③②② |①---|
口②③③ |----|
口口口口 |②---|
口①①口 |③---|
54
口④③口 |①---|
口②④③ |②---|
①口②④ |③---|
口①口口 |④---|
55
口口④④ |①---|
①③③④ |②---|
②①③口 |③---|
②②①口 |④---|
56
④③口口 |①---|
③③②口 |②---|
④②②① |③---|
口口①① |④---|
57
口口口① |①---|
口口口口 |----|
口口口①
口口口口

口②口口
②②③口
口③③④ |②-③-|
口口④④ |④---|
58
口口口口 |①---|
口③②① |②---|
口口口口 |③---|
口口口④ |④---|
59
口口口口 |①---|
③④口口 |②---|
口口口口 |③---|
口②①口 |④---|
60
口口口口 |①---|
口口①口 |②---|
口口口口 |③---|
②③④口 |④---|
61
口口口口 |①---|
①口口① |----|
口口口口
口口口口

③③②口
③②②口
口口口口 |②---|
口口口口 |③---|
62
口口口① |①---|
③③口① |②---|
④④口口 |③---|
口口②② |④---|
63
②②④口 |①---|
③④口口 |②---|
③口口口 |③---|
①①口口 |④---|
64
口②口口 |①---|
口口口口 |②---|
口①口口
口口①口

口口口口
口④口口
③④④口 |③---|
③③口口 |④---|
65
口②①口 |①---|
②口①① |----|
口口口③ |--②-|
口口③口 |③---|


不确定度: 0

最終更新:2013年01月24日 03:44