NEU!
√thumm

EXTREME

Level: 8
BPM: 133
Notes: 717

1
口口口口 |----|
口口口口 |----|
口口口口 |----|
口口口口 |----|
2
口①口口 |①-②-|
口口①口 |③-④-|
③④②口
口③口口

⑦⑧⑤口
口⑦⑥⑤
口口口口 |⑤-⑥-|
口口口口 |⑦-⑧-|
3
⑤⑤③口 |①-②-|
⑤口④③ |③-④-|
口①②口 |⑤---|
口口①口 |----|
4
口口口口 |①-②-|
口口口口 |③-④-|
③④①②
口③口①

口口⑤口
口口⑥⑤
⑧口口口 |⑤-⑥-|
⑦⑧口口 |⑦-⑧-|
5
口口④④ |①-②-|
口口口④ |③-④-|
口①②③ |----|
口口口② |----|
6
口①口口 |①-②-|
口口①口 |③-④-|
③④②口
口③口口

⑦⑧⑤口
口⑦口⑤
口口口⑥ |⑤-⑥-|
口口口口 |⑦-⑧-|
7
⑤⑤④口 |①-②-|
⑤口口③ |③-④-|
口①②口 |⑤---|
口口①口 |----|
8
口口口口 |①-②-|
口口口口 |③-④-|
③④①②
口③口①

口⑥⑦口
口口口⑦
⑧口口口 |⑤-⑥-|
⑤⑧口口 |⑦-⑧-|
9
口口口③ |①---|
口口口口 |②-③-|
口①口口
②口口口

口口口口
⑥⑥⑤④
口⑥⑤④ |④-⑤-|
口口口口 |⑥---|
10
④③④口 |①---|
④口②③ |②---|
②③口口 |③---|
①口②① |④---|
11
口②口① |①---|
口口②口 |②---|
②口①①
口口口口

口口③④
③口口口
口③口④ |③---|
口④口口 |④---|
12
①口口口 |①---|
口②②口 |②---|
①口口口
②口①口

口③口口
口口口口
④口③③ |③---|
口④口④ |④---|
13
①口①口 |①---|
口口口① |----|
口口口口
口口口口

③口口②
口口口口
口口口口 |②---|
②②③③ |③---|
14
③③口④ |①---|
①②①② |②---|
①②①② |③---|
④④口③ |④---|
15
②口①口 |①---|
②口①口 |②---|
口②口①
口口口口

口③口口
口口④口
③口③口 |③---|
口④口④ |④---|
16
①④口口 |①---|
④①④① |②---|
口②③② |③---|
②③口③ |④---|
17
口口口① |①---|
口口口① |----|
①口口口
①口口口

口口④口
②②口④
④口③③ |②-③-|
口④口口 |④---|
18
①口口① |①---|
口口口口 |②---|
口②②口
口口口口

口口口④
④④口口
口口口③ |③---|
③③口口 |④---|
19
①①③③ |①---|
口③②② |②---|
口④①口 |③---|
口②④④ |④---|
20
口口口口 |①---|
①②②② |②---|
①口口口
①口口口

口口口口
口口口口
④④③③ |③---|
口③④口 |④---|
21
①口口① |①---|
③①①③ |----|
口口口口 |②---|
②口口② |③---|
22
口①②口 |①---|
③②①④ |②---|
②口口① |③---|
③口口④ |④---|
23
④④①④ |①---|
②①口口 |②---|
口口②① |③---|
③②③③ |④---|
24
口③①③ |①---|
口①④② |②---|
口②③① |③---|
口④②④ |④---|
25
②③③② |①-②-|
①④④① |③-④-|
①口口①
口口口口

口口口口
口口口口
⑧⑤⑤⑧ |⑤-⑥-|
⑦⑥⑥⑦ |⑦-⑧-|
26
口口③③ |①-②-|
①①口④ |③-④-|
口②口口
口口口口

⑤⑤口口
⑥口口口
口口口⑧ |⑤-⑥-|
口口⑦⑦ |⑦-⑧-|
27
口口③⑦ |①-②-|
⑥②③⑦ |③-④-|
⑤①④⑧ |⑤-⑥-|
⑤①口口 |⑦-⑧-|
28
⑪③③⑫ |①-②-|
⑨口④⑩ |③-④-|
⑦②口⑧ |⑤⑥⑦⑧|
⑤①①⑥ |⑨⑩⑪⑫|
29
口⑦⑧口 |①②③④|
口⑤⑥口 |⑤⑥⑦⑧|
口③④口
口①②口

⑪口口⑬
⑩口口⑫
口⑮口口 |⑨⑩⑪⑫|
⑨⑭⑯⑨ |⑬⑭⑮⑯|
30
③⑦②⑤ |①-②-|
③⑦①⑤ |③-④-|
口口①口 |⑤-⑥-|
④⑧口⑥ |⑦-⑧-|
31
⑧口①口 |①-②-|
⑤⑤①⑥ |③-④-|
③③⑦④ |⑤-⑥-|
口口②⑦ |⑦-⑧-|
32
口口口② |①-②-|
③③口口 |③-④-|
口①口口
①口④④

口口⑩⑨
口口⑧⑦
⑫⑪⑥⑤ |⑤⑥⑦⑧|
口口口口 |⑨⑩⑪⑫|
33
④③口口 |①②③④|
②①口口 |⑤⑥⑦⑧|
口口口口
⑧⑦⑥⑤

⑮⑯口⑨
口⑭⑩口
⑫⑪⑬口 |⑨⑩⑪⑫|
口口口口 |⑬⑭⑮⑯|
34
⑦口①口 |①-②-|
⑧⑥口② |③-④-|
口口⑤③ |⑤-⑥-|
口口口④ |⑦-⑧-|
35
口口口④ |①-②-|
口口③⑤ |③-④-|
口②⑧⑥ |⑤-⑥-|
①口口⑦ |⑦-⑧-|
36
①口口⑦ |①-②-|
②口⑥⑧ |③-④-|
③⑤口口 |⑤-⑥-|
④口口口 |⑦-⑧-|
37
④口口口 |①-②-|
⑤③口口 |③-④-|
⑥⑧②口 |⑤-⑥-|
⑦口口① |⑦-⑧-|
38
①②⑦⑧ |①-②-|
口①口⑦ |③-④-|
⑤⑥③④ |⑤-⑥-|
口⑤口③ |⑦-⑧-|
39
②②口口 |①-②-|
③口①口 |③-④-|
口口④④
口口口口

口口⑥⑥
口口⑦口
⑧⑧口口 |⑤-⑥-|
口口⑤口 |⑦-⑧-|
40
②口口④ |①-②-|
②②④口 |③-④-|
口口③③
①口口③

口口口口
口口口⑤
⑦⑥⑧⑧ |⑤-⑥-|
⑥口口口 |⑦-⑧-|
41
口口⑥① |①-②-|
口⑦②口 |③-④-|
⑧③⑤⑤ |⑤-⑥-|
④口口口 |⑦-⑧-|
42
①②口口 |①-②-|
口口③口 |③-④-|
⑧口⑤④ |⑤-⑥-|
⑦⑥口口 |⑦-⑧-|
43
口口口② |①-②-|
口①口③ |③-④-|
口口④口
口口口口

⑤口口⑧
⑥口口口
口⑦口口 |⑤-⑥-|
口口口口 |⑦-⑧-|
44
口口①口 |①-②-|
口②口口 |③-④-|
口口口口
口③④口

口口口口
⑥口口口
⑦口口⑤ |⑤-⑥-|
口⑧口口 |⑦-⑧-|
45
②①口口 |①-②-|
口③口口 |③-④-|
口口④口
口口口口

口⑥口口
口口⑦口
口口口⑧ |⑤-⑥-|
口口口⑤ |⑦-⑧-|
46
口口口⑤ |①-②-|
口口④⑧ |③-④-|
①③⑦口 |⑤-⑥-|
②⑥口口 |⑦-⑧-|
47
①口口④ |①-②-|
②口口⑤ |③-④-|
⑧③⑥⑧ |⑤-⑥-|
③⑦⑦⑥ |⑦-⑧-|
48
②③③② |①-②-|
④①①④ |③-④-|
⑥⑤⑤⑥ |⑤-⑥-|
⑦⑧⑧⑦ |⑦-⑧-|
49
①口口口 |①-②-|
口②口口 |③-④-|
口口③口
口口口④

⑦口口⑥
⑤⑦⑥⑤
⑤口口⑤ |⑤-⑥-|
口口口口 |⑦---|
50
④③④口 |①---|
④口②③ |②---|
②③口口 |③---|
①口②① |④---|
51
口②口口 |①---|
口口②② |②---|
口口口①
口①口①

④口③口
③③口口
口④口④ |③---|
口口口口 |④---|
52
口口口口 |①---|
口②②① |②---|
①口口口
②口①口

口③口口
口口口口
④口③③ |③---|
口④口④ |④---|
53
①口①口 |①---|
口口口① |----|
口口口口
口口口口

口③③口
口口口口
口口口口 |②---|
②口口② |③---|
54
③③口④ |①---|
口②①② |②---|
①②①口 |③---|
④④口③ |④---|
55
口口口口 |①---|
②②①① |②---|
口②口①
口口口口

口③口口
口口④口
③口③口 |③---|
口④口④ |④---|
56
①口口口 |①---|
口①口① |②---|
口②口②
②口口口

口④口口
④④④口
口口③口 |③---|
口③③③ |④---|
57
①口口口 |①---|
口口口① |----|
口①口口
口口口口

口口口口
④④③③
②③④② |②-③-|
口口口口 |④---|
58
②③口② |①---|
口口④④ |②---|
③③口口 |③---|
①口④① |④---|
59
②口口① |①---|
③①口④ |②---|
口②口口 |③---|
③口口④ |④---|
60
口口口口 |①---|
口口口口 |②---|
②②①①
口①②口

口口口口
④口③④
口口口口 |③---|
③④口③ |④---|
61
①①口口 |①---|
口口口口 |----|
口①口口
口口口口

口口口口
口③口口
②③③口 |②---|
②②口口 |③---|
62
口口①② |①---|
口口①① |②---|
④④③③ |③---|
②③④口 |④---|
63
①②口① |①---|
口①①③ |②---|
口④④② |③---|
④③口④ |④---|
64
口①②口 |①---|
口②①口 |②---|
②口口①
口口口口

口④口④
③口④③
口③③口 |③---|
口口口口 |④---|
65
①口①口 |①---|
口①口口 |----|
口口口口
口口口口

口口口口
③③③③
②②②② |--②-|
口口口口 |③---|


不确定度: 0

最終更新:2013年01月24日 03:44