メンドクサイ愛情
大島麻衣

BASIC

Level: 2
BPM: 130
Notes: 177

1
口口口口 |----|
口口口口 |----|
口口口口 |----|
口口口口 |----|
2
①②③口 |①---|
口口口口 |②---|
口口口口 |③---|
口口口口 |----|
3
口口口口 |①---|
口③②① |②---|
口口口口 |③---|
口口口口 |----|
4
口口口口 |①---|
口口口口 |②---|
①②③口 |③---|
口口口口 |----|
5
口口口口 |①---|
口口口口 |②---|
口口口口 |③---|
口③②① |----|
6
口口口口 |①---|
③口口③ |②---|
②口口② |③---|
①口口① |----|
7
①②③口 |①---|
口口口口 |②---|
口口口口 |③---|
口口口口 |----|
8
口口口口 |①---|
口③②① |②---|
口口口口 |③---|
口口口口 |----|
9
口口口口 |①---|
口口口口 |----|
口①①口 |②---|
口②②口 |----|
10
口口口口 |①---|
口口口口 |----|
口口口口 |----|
①口口① |----|
11
口口口口 |----|
口②②口 |----|
口①①口 |①---|
口口口口 |②---|
12
①口口① |①---|
口口口口 |----|
口口口口 |----|
口口口口 |----|
13
口口口口 |----|
口口口口 |----|
①口口② |①---|
口口口口 |②---|
14
口口口口 |①---|
口④口口 |②---|
口②③口 |③---|
口①①口 |④---|
15
口②③口 |①---|
口口①口 |②---|
口口口口 |③---|
口口口口 |----|
16
口口口口 |①---|
②②①① |----|
口口口口 |②---|
口口口口 |----|
17
口口口口 |①---|
口口口口 |②---|
①②③口 |③---|
口口口口 |----|
18
口口口口 |①---|
口口口口 |②---|
③口口④ |③---|
①口口② |④---|
19
③口口口 |①---|
①口口② |②---|
口口口口 |③---|
口口口口 |----|
20
②②①① |①---|
口口口口 |----|
口口口口 |②---|
口口口口 |----|
21
口口口口 |①---|
口①②③ |②---|
口口口口 |③---|
口口口口 |----|
22
口口口口 |①---|
口口口口 |----|
②①①口 |----|
口口口口 |②---|
23
口口口口 |①---|
口口口口 |②---|
口口口③ |③---|
口①②口 |----|
24
口口口口 |①---|
①口口② |----|
口口口口 |②---|
口口口口 |----|
25
口①①口 |①---|
口②②口 |②---|
口③③口 |③---|
口④④口 |④---|
26
口口口口 |①---|
口口口口 |----|
口②口口 |----|
①口口① |②---|
27
口口口口 |①---|
口口②口 |----|
口口①口 |②---|
口口口口 |----|
28
①口口① |①---|
②口口② |----|
口口口口 |②---|
口口口口 |----|
29
口口口口 |①---|
口口口口 |----|
①口口① |----|
口口口口 |----|
30
口口口口 |----|
口口口口 |----|
口口口口 |①---|
口①②口 |②---|
31
口口口口 |①---|
口口口口 |----|
口口口口 |----|
口口口① |----|
32
口口口口 |----|
口③口口 |①---|
口口②口 |②---|
口①口口 |③---|
33
口口①口 |①---|
口口②② |----|
口口口口 |②---|
口口口口 |----|
34
口口口口 |①---|
口①口口 |----|
②②口口 |②---|
口口口口 |----|
35
口口口口 |①---|
口口口口 |②---|
口③④口 |③---|
口①②口 |④---|
36
②口口② |①---|
口①①口 |----|
口口口口 |②---|
口口口口 |----|
37
口口①口 |①---|
②②口口 |----|
口口口口 |②---|
口口口口 |----|
38
口口口口 |①---|
口口口口 |②---|
口①②③ |③---|
口口口口 |----|
39
口口口口 |①---|
口口口口 |----|
口口口口 |②---|
①口口② |----|
40
口口口口 |①---|
②口口② |----|
口①①口 |②---|
口口口口 |----|
41
口口①口 |①---|
口口②② |----|
口口口口 |②---|
口口口口 |----|
42
口口口口 |①---|
口①口口 |----|
②②口口 |②---|
口口口口 |----|
43
口口口口 |①---|
口口口口 |②---|
口③④口 |③---|
口①②口 |④---|
44
②口口② |①---|
口①①口 |----|
口口口口 |②---|
口口口口 |----|
45
口口①口 |①---|
口口②② |----|
口口口口 |②---|
口口口口 |----|
46
口口口口 |①---|
口口口口 |②---|
①②③口 |③---|
口口口口 |----|
47
口口口口 |①---|
口口口口 |----|
口口口口 |②---|
①口口② |----|
48
口口口口 |①---|
口口口口 |----|
口①①口 |----|
口口口口 |----|
49
口口口口 |①---|
口③②① |②---|
口口口口 |③---|
口口口口 |----|
50
口口口口 |①---|
口口口口 |②---|
①②③口 |③---|
口口口口 |----|
51
口口口口 |①---|
口口口口 |②---|
口口口口 |③---|
口③②① |----|
52
口口口口 |①---|
③口口③ |②---|
②口口② |③---|
①口口① |----|
53
①②③口 |①---|
口口口口 |②---|
口口口口 |③---|
口口口口 |----|
54
口口口口 |①---|
口③②① |②---|
口口口口 |③---|
口口口口 |----|
55
口口口口 |①---|
口口口口 |----|
口①①口 |②---|
口②②口 |----|
56
口口口口 |①---|
口口口口 |----|
口口口口 |----|
①口口① |----|


不确定度: 0

最終更新:2013年03月23日 20:47