ギタ・ドラ・jubeat大夏祭りのテーマ
DNM盛り上げ隊

BASIC

Level: 6
BPM: 157
Notes: 308

1
口口口口 |----|
口口口口 |----|
口口口口 |----|
口口口口 |----|
2
①②口口 |①---|
口口口口 |----|
①②口口 |②---|
口口口口 |----|
3
口口①② |①---|
口口口口 |----|
口口①② |②---|
口口口口 |----|
4
口口口口 |①---|
口口②① |----|
口口口口 |②---|
口口②① |----|
5
口口口口 |①---|
②①口口 |----|
口口口口 |②---|
②①口口 |----|
6
口口口口 |①---|
口口口口 |----|
②口口① |②---|
②口口① |----|
7
口①①口 |①---|
口口口口 |----|
口口口口 |----|
口口口口 |----|
8
口①口口 |①---|
口②口口 |----|
口口口口 |②---|
口口口口 |----|
9
口口口口 |①---|
口口口口 |----|
口①口口 |②---|
口②口口 |----|
10
口口口口 |①---|
口口口口 |----|
②口口① |②---|
②口口① |----|
11
口①①口 |①---|
口口口口 |----|
口口口口 |----|
口口口口 |----|
12
④③③④ |①---|
口口口口 |②---|
②口口① |③---|
②口口① |--④-|
13
口口口口 |①---|
口①①口 |②---|
口②②口 |③---|
③③③③ |----|
14
口口口口 |--①-|
口口口口 |②-③-|
口①④口 |④-⑤-|
③②⑤⑥ |⑥---|
15
口口口口 |①---|
②口口② |--②-|
①③③① |----|
口口口口 |③---|
16
③②②③ |①---|
口①①口 |②---|
口口口口 |③---|
口口口口 |----|
17
口口口口 |①---|
口口口口 |②---|
①口口① |③---|
②③③② |----|
18
口口口口 |----|
口口口口 |①---|
①口口② |②---|
口①②口 |----|
19
①③③① |①---|
口②②口 |--②-|
口口口口 |----|
口口口口 |③---|
20
①口口① |①---|
②口口② |②---|
③口口③ |③---|
④口口④ |④---|
21
口口口口 |①---|
口口口口 |----|
口口口口 |----|
口①①口 |----|
22
①口口口 |--①-|
口口口口 |----|
口口口口 |----|
口口口口 |----|
23
口①③口 |①-②-|
口④②口 |③-④-|
口口⑤口 |⑤-⑥-|
⑥口口⑦ |⑦---|
24
④②④② |①---|
口③①口 |②---|
口口口口 |③---|
口口口口 |④---|
25
口口④口 |①---|
①口①口 |②---|
口②口② |③---|
③口③口 |④---|
26
口口口口 |①-②-|
口①③口 |③-④-|
口④②口 |⑤---|
口口⑤口 |----|
27
口口口口 |----|
口口口口 |----|
口口口口 |----|
口口口① |①---|
28
②口口口 |①---|
口口口口 |----|
口口口口 |②---|
①口口② |----|
29
①①①口 |----|
口①口口 |----|
口①口口 |--①-|
口口口口 |----|
30
口口口口 |①---|
口口口口 |----|
①口口口 |----|
口口口口 |----|
31
口口口口 |①---|
口口口口 |----|
口口口① |----|
口口口口 |----|
32
口①口口 |①---|
口②口口 |----|
口口口口 |②---|
口口口口 |----|
33
口口口口 |①---|
口口口口 |----|
口①口口 |②---|
口②口口 |----|
34
口口口口 |①---|
口口口口 |----|
②口口① |②---|
②口口① |----|
35
口①①口 |①---|
口口口口 |----|
口口口口 |----|
口口口口 |----|
36
④③③④ |①---|
口口口口 |②---|
②口口① |③---|
②口口① |--④-|
37
口口口口 |①---|
口①①口 |②---|
口②②口 |③---|
③③③③ |----|
38
口①①口 |--①-|
口口口口 |----|
口口③② |②---|
口③②口 |③---|
39
口②口口 |①---|
口③口口 |----|
口①口口 |②---|
①口口口 |③---|
40
口口口口 |①---|
口口口口 |②---|
口①口口 |③---|
口②③口 |----|
41
口口口口 |----|
口口口口 |----|
口口口口 |----|
口口口口 |----|
42
②口口④ |①---|
口①③口 |②---|
②口口④ |③---|
口口口口 |④---|
43
口③口口 |①---|
口口口③ |----|
口①①口 |②---|
口②口口 |③---|
44
口④②口 |①---|
②口口④ |②---|
口口口口 |③---|
口③①口 |④---|
45
口④②口 |①---|
②口口④ |②---|
口口口口 |③---|
口③①口 |④---|
46
①④③⑥ |--①-|
口②⑤口 |②-③-|
口口口口 |④-⑤-|
口口口口 |⑥---|
47
④口④口 |①---|
口③口③ |②---|
②口②口 |③---|
口①口① |④---|
48
②口口② |--①-|
口口口口 |----|
口口口口 |②---|
①口口① |----|
49
口口口④ |①---|
口口口口 |②---|
口①②③ |③---|
①②③口 |④---|
50
口口口口 |①-②-|
口③②口 |③-④-|
口①④⑤ |⑤---|
口口口口 |----|
51
①口口口 |----|
口口口口 |----|
口口口口 |----|
口口口口 |①---|
52
口口口口 |①-②-|
口②③口 |③-④-|
⑤④①口 |⑤---|
口口口口 |----|
53
③口口③ |----|
口①①口 |----|
口口口口 |--①-|
②口口② |②-③-|
54
口①口口 |①---|
口②口口 |----|
口口口口 |②---|
口口口口 |----|
55
口口口口 |①---|
口口口口 |----|
口①口口 |②---|
口②口口 |----|
56
④③③④ |①---|
口口口口 |②---|
②口口① |③---|
②口口① |--④-|
57
口口口口 |①---|
口①①口 |②---|
口②②口 |③---|
③③③③ |----|
58
口①②口 |①---|
①口口② |②---|
口③③口 |③---|
口口口口 |----|
59
口口口口 |①---|
口口口口 |②---|
口口口口 |----|
①口口② |----|
60
①口口② |①---|
①口口② |②---|
口口口口 |----|
口口口口 |----|
61
口口口口 |①-②-|
口③②口 |③-④-|
口①④⑤ |⑤---|
口口口口 |----|
62
口口口口 |①---|
口③②① |②---|
①②③口 |③---|
口口口口 |----|
63
口④口口 |①---|
口③口口 |②---|
口②口口 |③---|
口①口口 |④---|
64
⑥口口③ |①-②-|
口④①口 |③---|
口口口口 |④-⑤-|
⑤口口② |⑥---|
65
口③③口 |①-②-|
口口口口 |③---|
口①①口 |----|
口②②口 |----|
66
⑥③③⑥ |①-②-|
①④④① |③---|
口口口口 |④-⑤-|
⑤②②⑤ |⑥---|
67
口①①口 |①---|
①口口① |----|
口口口口 |----|
口口口口 |----|

不确定度: 0

最終更新:2012年11月06日 22:25