メンドクサイ愛情
大島麻衣

EXTREME

Level: 8
BPM: 130
Notes: 591

1
口口口口 |----|
口口口口 |----|
口口口口 |----|
口口口口 |----|
2
①②③口 |①---|
口口口口 |②---|
口口口口 |③---|
口④④口 |④---|
3
①⑤口① |①②③④|
口口⑥② |⑤⑥⑦⑧|
③⑦口口
口口⑧④

口口⑬⑬
⑫⑫口口
口口⑩⑪ |⑨-⑩⑪|
⑨口口口 |-⑫-⑬|
4
①②口口 |①-②③|
口口③口 |④⑤⑥⑦|
⑥④口⑦
口口⑤口

⑨口口⑩
⑫⑪口⑫
口口口口 |⑧---|
⑧口口口 |⑨⑩⑪⑫|
5
⑥口⑤口 |-①②③|
口口口口 |④-⑤⑥|
①口④口
口③口②

口口口口
⑧⑦⑦口
⑫⑬口⑨ |⑦⑧⑨⑩|
⑩口⑪口 |⑪-⑫⑬|
6
②口①① |①-②-|
④⑤③③ |③-④⑤|
口口口口
口口口口

⑩口口⑩
口口口口
⑦口⑥⑥ |⑥-⑦-|
⑨口⑧⑧ |⑧-⑨⑩|
7
口口口口 |-①②③|
①②③口 |④⑤⑥⑦|
④口⑤⑦
口⑥口口

口⑧⑫⑫
口⑬⑭⑭
口⑩口口 |⑧⑨⑩⑪|
口口⑪⑨ |-⑫⑬⑭|
8
口⑦⑧口 |①②③④|
口口口口 |⑤⑥⑦⑧|
①口口②
⑤③⑥④

⑪口口口
口口口⑫
⑩⑨⑨口 |⑨--⑩|
⑬口口口 |-⑪⑫⑬|
9
口④口① |-①②③|
②口⑤⑦ |-④⑤⑥|
⑧口⑪⑫ |⑦-⑧⑨|
⑩⑥⑨③ |⑩-⑪⑫|
10
⑤口口口 |--①-|
②①①口 |②-③-|
口⑥口口 |④---|
口口③④ |⑤--⑥|
11
⑧⑦口⑧ |--①-|
⑥②口⑥ |②-③-|
口⑤口① |④-⑤-|
④口③④ |⑥-⑦⑧|
12
口口口口 |①-②-|
⑥③⑦口 |③-④-|
②口④⑤ |⑤---|
口口①② |⑥--⑦|
13
口口口口 |--①-|
口口口口 |②③④⑤|
口②③①
口④⑤口

⑧口口⑧
口⑦⑦口
⑦⑧⑧⑦ |⑥---|
⑥口口⑥ |⑦--⑧|
14
口②口口 |--①-|
①口⑤④ |②-③-|
⑥口口口 |④--⑤|
口⑦③⑧ |-⑥⑦⑧|
15
⑥口③口 |-①②-|
①口⑦④ |③-④⑤|
口②⑤⑧ |----|
口口口口 |⑥-⑦⑧|
16
口口口口 |----|
④④口① |①-②③|
口②⑤口 |----|
③口口⑥ |④-⑤⑥|
17
⑥口口⑤ |--①-|
口口②② |②-③④|
⑤③口⑥ |--⑤-|
④①①口 |⑥---|
18
口口②口 |--①-|
口口⑦① |②-③-|
④⑧⑤口 |④-⑤⑥|
口③⑨⑥ |-⑦⑧⑨|
19
⑤⑤口口 |--①-|
①③⑥② |②-③④|
口口④⑦ |----|
口口口口 |⑤-⑥⑦|
20
口⑤①① |----|
④②口口 |①-②③|
③口⑥口 |--④-|
口口口⑦ |⑤-⑥⑦|
21
⑤口口口 |--①-|
⑥口口口 |②-③④|
②③⑥① |--⑤-|
④口⑤口 |⑥---|
22
口口①口 |①---|
口①口① |----|
②①③① |----|
②口③口 |②-③-|
23
④①口① |①--②|
②⑤②口 |--③-|
口③口③ |----|
口口口口 |④-⑤-|
24
口口口② |①---|
口口口口 |②-③④|
口④①③
口④①口

口口口口
口口口⑤
口口⑥口 |----|
口口口口 |⑤-⑥-|
25
①口②② |①-②-|
③①④④ |③-④-|
口③口口
口口口口

口口口口
口⑦口口
⑤口⑥⑥ |⑤-⑥-|
⑦⑤⑧⑧ |⑦-⑧-|
26
①口口口 |①--②|
⑤口②⑥ |--③-|
口①③④ |④---|
口口口口 |⑤-⑥-|
27
口①①口 |①--②|
口口②口 |--③-|
④②②⑤ |----|
口③③口 |④-⑤-|
28
②口口口 |①---|
口口②口 |②---|
口口口口
口①①口

口口口③
④③口口
口口口口 |③---|
口口④④ |④---|
29
⑤④②③ |①-②-|
口口口① |--③-|
口口口口 |--④-|
口①口口 |--⑤-|
30
⑥④①② |--①-|
⑤口⑦⑥ |--②-|
口口口④ |③-④-|
③口口口 |⑤-⑥⑦|
31
口③①② |--①-|
口①口口 |--②-|
口④⑤口 |--③-|
口⑥⑦口 |④⑤⑥⑦|
32
④口口口 |①-②-|
口口口③ |③-④-|
②口口口
①口口①

口口⑧口
口⑦口口
口口⑥口 |⑤-⑥-|
口⑤⑦⑦ |⑦-⑧-|
33
①口口① |①---|
口②口口 |--②-|
②口口口
口口口口

④口④口
口口口③
口口③口 |③---|
口口口口 |--④-|
34
口口口口 |①---|
口口②口 |--②-|
口口口②
口①口①

口口口口
③口口口
口③口口 |③---|
口口口④ |--④-|
35
②①①① |①---|
②①④④ |②---|
②②③④ |③---|
③③③④ |④---|
36
口口口① |①---|
②①口口 |--②-|
口口②口
口口口口

口口口④
口口口④
③④口口 |③---|
④口③口 |--④-|
37
①②③口 |①---|
①②③④ |--②-|
③口①② |③---|
口③②① |--④-|
38
①口口口 |①--②|
口③口口 |--③-|
口①②口
②口③口

⑤⑤口口
口口④⑥
口口⑦口 |④---|
口口口④ |⑤-⑥⑦|
39
口口口④ |----|
③⑥⑤⑦ |①②③④|
⑦⑤⑥② |--⑤-|
①口口口 |⑥-⑦-|
40
口①①口 |--①-|
口③②⑤ |-②--|
口口口③ |③---|
④②口口 |④-⑤-|
41
①口口① |①---|
口②口口 |--②-|
②口口口
口口口口

④口④口
口口口③
口口③口 |③---|
口口口口 |--④-|
42
口口口口 |①---|
口口②口 |--②-|
口口口②
口①口①

口口口口
③口口口
口③口口 |③---|
口口口④ |--④-|
43
②①①① |①---|
②①④④ |②---|
②②③④ |③---|
③③③④ |④---|
44
口口口① |①---|
②①口口 |--②-|
口口②口
口口口口

口口口④
口口口④
③④口口 |③---|
④口③口 |--④-|
45
①②③口 |①---|
①②③④ |--②-|
③口①② |③---|
口③②① |--④-|
46
①口口口 |①--②|
口③口口 |--③-|
口①②口
②口③口

⑤⑤口口
口口④⑥
口口⑦口 |④---|
口口口④ |⑤-⑥⑦|
47
口口①① |----|
口⑤④⑦ |①-②③|
⑥④⑤口 |--④-|
③②口口 |⑤-⑥⑦|
48
口①③口 |--①-|
③口②口 |-②--|
口口③口 |③---|
③②①口 |----|
49
①⑤口① |①②③④|
口口⑥② |⑤⑥⑦⑧|
③⑦口口
口口⑧④

口口⑬⑬
⑫⑫口口
口口⑩⑪ |⑨-⑩⑪|
⑨口口口 |-⑫-⑬|
50
①②口口 |①-②③|
口口③口 |④⑤⑥⑦|
⑥④口⑦
口口⑤口

⑨口口⑩
⑫⑪口⑫
口口口口 |⑧---|
⑧口口口 |⑨⑩⑪⑫|
51
⑥口⑤口 |-①②③|
口口口口 |④-⑤⑥|
①口④口
口③口②

口口口口
⑧⑦⑦口
⑫⑬口⑨ |⑦⑧⑨⑩|
⑩口⑪口 |⑪-⑫⑬|
52
②口①① |①-②-|
④⑤③③ |③-④⑤|
口口口口
口口口口

⑩口口⑩
口口口口
⑦口⑥⑥ |⑥-⑦-|
⑨口⑧⑧ |⑧-⑨⑩|
53
口口口口 |-①②③|
①②③口 |④⑤⑥⑦|
④口⑤⑦
口⑥口口

口⑧⑫⑫
口⑬⑭⑭
口⑩口口 |⑧⑨⑩⑪|
口口⑪⑨ |-⑫⑬⑭|
54
口⑦⑧口 |①②③④|
口口口口 |⑤⑥⑦⑧|
①口口②
⑤③⑥④

⑪口口口
口口口⑫
⑩⑨⑨口 |⑨--⑩|
⑬口口口 |-⑪⑫⑬|
55
口④口① |-①②③|
②口⑤⑦ |-④⑤⑥|
⑧口⑪⑫ |⑦-⑧⑨|
⑩⑥⑨③ |⑩-⑪⑫|
56
⑤口口口 |--①-|
②①①口 |②-③-|
口⑥口口 |④---|
口口③④ |⑤--⑥|
57
口口口口 |--①-|
④②口口 |②-③-|
口口口① |④---|
口口③口 |----|


不确定度: 0

最終更新:2013年03月23日 20:47