Love Space Ship
SHANADOO

EXTREME

Level: 7
BPM: 171
Notes: 614

1
口口口口 |----|
口口口口 |----|
口口口口 |----|
口口口口 |----|
2
口口口口 |----|
口口口口 |----|
口口口口 |----|
口口口口 |----|
3
口口口口 |----|
口口口口 |----|
口口口口 |----|
口口口口 |----|
4
①②口口 |①---|
④③口④ |②---|
④口③④ |③---|
口口②① |④---|
5
口口②① |①---|
④口③④ |②---|
④③口④ |③---|
①②口口 |④---|
6
①②口口 |①---|
④③口④ |②---|
④口③④ |③---|
口口②① |④---|
7
口口②① |①---|
④口③④ |②---|
④③口④ |③---|
①②口口 |④---|
8
①②口口 |①---|
④③口④ |②---|
④口③④ |③---|
口口②① |④---|
9
口口②① |①---|
④口③④ |②---|
④③口④ |③---|
①②口口 |④---|
10
①②口口 |①---|
④③口④ |②---|
④口③④ |③---|
口口②① |④---|
11
④口②① |①---|
口④③④ |②---|
④③④口 |③---|
①②口④ |④---|
12
口①口① |----|
②口②口 |①---|
口口口口 |②---|
口口口口 |----|
13
口口口口 |①---|
口口口口 |--②-|
口①口① |----|
②口②口 |----|
14
口口口口 |----|
①口口口 |①---|
①口口口 |②---|
②②口口 |----|
15
口②口① |①---|
②口①口 |--②-|
口②口① |----|
②口①口 |----|
16
①口①口 |----|
口②口② |①---|
口口口口 |②---|
口口口口 |----|
17
口口口口 |①---|
口口口口 |--②-|
①口①口 |----|
口②口② |----|
18
口口口口 |----|
①口口口 |①---|
①口口口 |②---|
②②口口 |----|
19
口②口① |①---|
②口①口 |--②-|
口②口① |----|
②口①口 |----|
20
①口口① |①---|
口口③② |----|
②③口口 |②-③-|
口口口口 |----|
21
口口①① |①---|
③②口口 |----|
口口②③ |②-③-|
①①口口 |----|
22
①①口口 |①---|
口口③② |----|
②③口口 |②-③-|
口口①① |----|
23
口口①① |①---|
③②口口 |----|
口口②③ |②-③-|
①①口口 |----|
24
①①口口 |①---|
口口③② |----|
②③口口 |②-③-|
口口①① |----|
25
口口①① |①---|
③②口口 |----|
口口②③ |②-③-|
①①口口 |----|
26
①①口口 |①---|
口口③② |----|
②③口口 |②-③-|
口口①① |----|
27
口口①① |①---|
口口口口 |----|
②②③③ |②---|
①①口口 |③---|
28
①口口② |--①-|
⑥③④⑥ |②-③-|
口口口口 |④-⑤-|
口⑤⑤口 |--⑥-|
29
口②①口 |--①-|
口④③口 |②-③-|
口⑥⑤口 |④-⑤-|
口口口口 |⑥---|
30
口②②口 |①---|
②口口② |----|
①口口① |②---|
口①①口 |----|
31
①口口① |①---|
口①①口 |----|
口②②口 |②---|
②口口② |----|
32
①口口② |--①-|
⑥③④⑥ |②-③-|
口口口口 |④-⑤-|
口⑤⑤口 |--⑥-|
33
口①②口 |--①-|
口③④口 |②-③-|
⑥口口⑥ |④--⑤|
口⑤⑤口 |--⑥-|
34
口口口口 |①---|
①口口① |----|
口口口口 |----|
口口口口 |----|
35
口①①口 |①---|
④②②④ |②---|
口③③口 |③---|
口④④口 |④---|
36
口口②① |--①-|
口④③口 |②-③-|
⑥⑤口口 |④-⑤-|
⑦口口口 |⑥-⑦-|
37
①②口口 |--①-|
口③④口 |②-③-|
口口⑤⑥ |④-⑤-|
口口口⑦ |⑥-⑦-|
38
②⑥口② |--①-|
①口⑤① |②---|
口④口口 |③-④-|
口口③口 |⑤-⑥-|
39
口⑦⑦口 |--①-|
⑥⑤⑤⑥ |②-③-|
①④④① |④-⑤-|
②③③② |⑥-⑦-|
40
口口口⑦ |--①-|
口口⑤⑥ |②-③-|
口③④口 |④-⑤-|
①②口口 |⑥-⑦-|
41
⑦口口口 |--①-|
⑥⑤口口 |②-③-|
口④③口 |④-⑤-|
口口②① |⑥-⑦-|
42
口口④口 |--①-|
口⑤口口 |②-③-|
口口⑥③ |④-⑤-|
口⑦①② |⑥-⑦-|
43
②③③② |①-②-|
①④④① |--③-|
⑥⑤⑤⑥ |④-⑤-|
⑦口口⑦ |⑥-⑦-|
44
口口②① |--①-|
口④③口 |②-③-|
⑥⑤口口 |④-⑤-|
⑦口口口 |⑥-⑦-|
45
①②口口 |--①-|
口③④口 |②-③-|
口口⑤⑥ |④-⑤-|
口口口⑦ |⑥-⑦-|
46
口⑦①② |--①-|
口口⑥③ |②-③-|
口⑤口口 |④-⑤-|
口口④口 |⑥-⑦-|
47
口⑦⑦口 |--①-|
⑥⑤⑤⑥ |②-③-|
①④④① |④-⑤-|
②③③② |⑥-⑦-|
48
口⑥⑥口 |--①-|
口⑤⑤口 |②-③-|
④口口③ |④---|
②口口① |⑤-⑥-|
49
①口口① |①---|
口口口口 |--②-|
③④④③ |③---|
②口口② |--④-|
50
③口口③ |①---|
①②②① |--②-|
口口口口 |----|
口口口口 |③---|
51
④④④④ |①---|
③③③③ |②---|
②②②② |③---|
①①①① |④---|
52
口口口⑦ |--①-|
口口⑤⑥ |②-③-|
口③④口 |④-⑤-|
①②口口 |⑥-⑦-|
53
⑦口口口 |--①-|
⑥⑤口口 |②-③-|
口④③口 |④-⑤-|
口口②① |⑥-⑦-|
54
口③口口 |--①-|
口口④口 |--②-|
①⑤口① |③-④-|
②口⑥② |⑤-⑥-|
55
②③③② |①---|
①④④① |②-③-|
⑥⑤⑤⑥ |④-⑤-|
⑦口口⑦ |⑥-⑦-|
56
口口②① |--①-|
口④③口 |②-③-|
⑥⑤口口 |④-⑤-|
⑦口口口 |⑥-⑦-|
57
①②口口 |--①-|
口③④口 |②-③-|
口口⑤⑥ |④-⑤-|
口口口⑦ |⑥-⑦-|
58
口⑦③② |--①-|
口口⑥① |②-③-|
口⑤口口 |④-⑤-|
口口④口 |⑥-⑦-|
59
口⑦⑦口 |--①-|
⑥⑤⑤⑥ |②-③-|
①④④① |④-⑤-|
②③③② |⑥-⑦-|
60
口口口⑦ |--①-|
口口⑤⑥ |②-③-|
口③④口 |④-⑤-|
①②口口 |⑥-⑦-|
61
⑦口口口 |--①-|
⑥⑤口口 |②-③-|
口④③口 |④-⑤-|
口口②① |⑥-⑦-|
62
口口④口 |--①-|
口⑤口口 |②-③-|
口口⑥③ |④-⑤-|
口⑦①② |⑥-⑦-|
63
②③③② |--①-|
①④④① |②-③-|
⑥⑤⑤⑥ |④-⑤-|
⑦口口⑦ |⑥-⑦-|
64
④③②① |--①-|
口口口口 |②-③-|
口⑤⑤口 |④---|
口⑤⑤口 |⑤---|
65
口口口口 |①---|
①②②① |--②-|
②口口② |----|
③口口③ |③---|
66
③口口③ |①---|
①②②① |--②-|
②①①② |----|
口口口口 |③---|
67
④④④④ |①---|
③③③③ |②---|
②②②② |③---|
①①①① |④---|
68
口口口口 |①---|
④③口④ |②---|
④口③④ |③---|
口②①口 |④---|
69
口口②① |①---|
④口③④ |②---|
④③口④ |③---|
①②口口 |④---|
70
①②④口 |①---|
口③④口 |②---|
口④③口 |③---|
口④②① |④---|
71
⑧口口⑦ |①-②-|
⑥口口⑤ |③-④-|
④口口③ |⑤-⑥-|
②口口① |⑦-⑧-|
72
口②①口 |①---|
④③口④ |②---|
④口③④ |③---|
口①②口 |④---|
73
口口②① |①---|
④口③④ |②---|
④③口④ |③---|
①②口口 |④---|
74
①②口口 |①---|
口③④口 |②---|
口④③口 |③---|
口口②① |④---|
75
①⑧⑧① |①-②-|
②⑦⑦② |③-④-|
③⑥⑥③ |⑤-⑥-|
④⑤⑤④ |⑦-⑧-|


不确定度: 0

最終更新:2013年03月23日 13:42