lovely my girl
シュクレット

BASIC

Level: 3
BPM: 177
Notes: 180

1
口口口口 |----|
口口口口 |----|
口口口口 |----|
口口口口 |----|
2
口①口口 |----|
口口②口 |----|
口口口口 |①---|
口口口口 |②---|
3
口口口口 |①---|
口口口口 |----|
口口口① |②---|
口口②口 |----|
4
口口②口 |①---|
口③口口 |----|
口①口口 |②---|
口口口口 |③---|
5
口口口口 |①---|
口口口口 |----|
①口口口 |②---|
口②口口 |----|
6
口口口口 |①---|
口口口口 |----|
口口③口 |②---|
口口①② |③---|
7
口②口口 |①---|
口①口口 |----|
口口口口 |②---|
口口口口 |----|
8
口口口口 |①---|
口口①口 |----|
口口③口 |②---|
口②口口 |③---|
9
口口②口 |①---|
口口口① |----|
口口口口 |②---|
口口口口 |----|
10
口口口口 |①---|
口①口口 |----|
口②②口 |②---|
口口口口 |----|
11
口口口口 |----|
口口口口 |----|
口口口口 |----|
口口口口 |----|
12
口口口口 |①---|
口口口口 |----|
口口口口 |----|
①口口① |----|
13
口④口口 |①---|
口③口口 |②---|
口②口口 |③---|
口①口口 |④---|
14
①口口口 |①---|
口口口口 |----|
口口口口 |----|
口口口口 |----|
15
口口①口 |①---|
口口②口 |②---|
口口③口 |③---|
口口④口 |④---|
16
口口口口 |①---|
口口口口 |----|
口口口口 |----|
口口口① |----|
17
口口口口 |①---|
口口口口 |----|
口①①口 |----|
口口口口 |----|
18
口口口口 |①---|
口①①口 |----|
口口口口 |----|
口口口口 |----|
19
口①①口 |①---|
口口口口 |----|
口口口口 |----|
口口口口 |----|
20
口口口口 |①---|
口口口口 |----|
口口口口 |----|
口①①口 |----|
21
口口口口 |①---|
口口口口 |②---|
①②③④ |③---|
口口口口 |④---|
22
口口口口 |①---|
口口口口 |----|
口口口口 |----|
口口口① |----|
23
口口口口 |①---|
④③②① |②---|
口口口口 |③---|
口口口口 |④---|
24
①口口口 |①---|
口口口口 |----|
口口口口 |----|
口口口口 |----|
25
口①①口 |①---|
口口口口 |----|
口口口口 |----|
口口口口 |----|
26
口口口口 |①---|
口①①口 |----|
口口口口 |----|
口口口口 |----|
27
口口口口 |①---|
口口口口 |----|
口①①口 |----|
口口口口 |----|
28
口口口口 |①---|
口口口口 |----|
口口口口 |----|
①①口口 |----|
29
口口口口 |①---|
口口口口 |----|
口口①① |----|
口口口口 |----|
30
口口口口 |①---|
①①口口 |----|
口口口口 |----|
口口口口 |----|
31
口口①① |①---|
口口口口 |----|
口口口口 |----|
口口口口 |----|
32
①①口口 |①---|
口口口口 |----|
口口口口 |----|
口口口口 |----|
33
口口口口 |①---|
口口①① |----|
口口口口 |----|
口口口口 |----|
34
口口口口 |①---|
口口口口 |----|
①①口口 |----|
口口口口 |----|
35
口口口口 |①---|
口口口口 |----|
口口口口 |----|
口口①① |----|
36
口口口口 |①---|
口口口口 |②---|
③口口④ |③---|
①口口② |④---|
37
③口口④ |①---|
①口口② |②---|
口口口口 |③---|
口口口口 |④---|
38
口①②口 |①---|
口③④口 |②---|
口口口口 |③---|
口口口口 |④---|
39
口口口口 |①---|
口口口口 |②---|
口①②口 |③---|
口③④口 |④---|
40
口口口口 |----|
③口口口 |①---|
②口口口 |②---|
①口口口 |③---|
41
①②③④ |①---|
口口口口 |②---|
口口口口 |③---|
口口口口 |④---|
42
口口口口 |①---|
口口口① |②---|
口口口② |③---|
口口④③ |④---|
43
口口口口 |①---|
口③④口 |②---|
口②口口 |③---|
口①口口 |④---|
44
口口口口 |----|
口口口口 |①---|
口③口口 |②---|
口①②口 |③---|
45
口④口口 |①---|
口②③口 |②---|
口口①口 |③---|
口口口口 |④---|
46
②口①③ |①---|
④口口口 |②---|
口口口口 |③---|
口口口口 |④---|
47
口口口口 |①---|
口口口① |②---|
②口口③ |③---|
④口口口 |④---|
48
口口口口 |----|
口口口③ |①---|
口口口② |②---|
口口口① |③---|
49
④③②① |①---|
口口口口 |②---|
口口口口 |③---|
口口口口 |④---|
50
口口口口 |①---|
①口口口 |②---|
②口口口 |③---|
③④口口 |④---|
51
口口口口 |①---|
口④③口 |②---|
口口②口 |③---|
口口①口 |④---|
52
口②口口 |①---|
口口③口 |----|
口①口口 |②---|
口口口口 |③---|
53
口口口口 |①---|
口口口口 |----|
口口口① |②---|
口口②口 |----|
54
口口②口 |①---|
口③口口 |----|
口①口口 |②---|
口口口口 |③---|
55
口口口口 |①---|
口口口口 |----|
①口口口 |②---|
口②口口 |----|
56
口口口口 |①---|
口口口口 |----|
口口③口 |②---|
口口①② |③---|
57
口②口口 |①---|
口①口口 |----|
口口口口 |②---|
口口口口 |----|
58
口口口口 |①---|
口口①口 |----|
口口③口 |②---|
口②口口 |③---|
59
口口②口 |①---|
口口口① |----|
口口口口 |②---|
口口口口 |----|
60
口②口口 |①---|
口①③口 |----|
口口口口 |②---|
口口口口 |③---|
61
口口口口 |①---|
口口口口 |----|
口口口① |②---|
口口②口 |----|
62
口口②口 |①---|
口③口口 |----|
口①口口 |②---|
口口口口 |③---|
63
口口口口 |①---|
口口口口 |----|
①口口口 |②---|
口②口口 |----|
64
口口口口 |①---|
口口口口 |----|
口口③口 |②---|
口口①② |③---|
65
口②口口 |①---|
口①口口 |----|
口口口口 |②---|
口口口口 |----|
66
口口口口 |①---|
口口①口 |----|
口口③口 |②---|
口②口口 |③---|
67
口口②口 |①---|
口口口① |----|
口口口口 |②---|
口口口口 |----|
68
口口口口 |①---|
口①口口 |----|
口②②口 |②---|
口口口口 |----|
69
口口口口 |①---|
口口口口 |----|
口口口口 |----|
①口口① |----|


不确定度: 0

最終更新:2013年03月23日 17:20