lovely my girl
シュクレット

ADVANCED

Level: 7
BPM: 177
Notes: 388

1
口口口口 |----|
口口口口 |----|
口口口口 |----|
口口口口 |----|
2
口口口口 |----|
口②口④ |----|
①口③口 |①-②-|
口口口口 |③-④-|
3
口①口② |①---|
③口④口 |②---|
口口口口 |③---|
口⑤口口 |④-⑤-|
4
口口口② |--①-|
⑥口④口 |--②-|
口⑤口③ |③-④-|
口口口① |⑤-⑥-|
5
②口①口 |①---|
口④口③ |②---|
口口口口 |③---|
口口⑤口 |④-⑤-|
6
口口⑥口 |--①-|
口⑤口口 |--②-|
口口④口 |③-④-|
①③口② |⑤-⑥-|
7
口口口② |①---|
口口④口 |②---|
⑤口口① |③---|
口口③口 |④-⑤-|
8
①③口② |--①-|
口口④口 |--②-|
口⑤口口 |③-④-|
口口⑥口 |⑤-⑥-|
9
②口口口 |①---|
口④口口 |②---|
①口口⑤ |③---|
口③口口 |④-⑤-|
10
口②②① |--①-|
口口口口 |--②-|
口③④口 |③---|
口口口口 |④---|
11
⑬⑭⑮⑯ |①②③④|
①②③④ |⑤⑥⑦⑧|
⑨⑩⑪⑫ |⑨⑩⑪⑫|
⑤⑥⑦⑧ |⑬⑭⑮⑯|
12
口口口口 |①---|
口口口① |②---|
口口口口 |----|
②③③② |③---|
13
口口口口 |①---|
口①②③ |②-③-|
口④口⑤ |--④-|
口口口口 |--⑤-|
14
口口口口 |----|
口口口口 |①---|
口口口口 |----|
①②②① |②---|
15
④口⑤口 |①---|
③②口口 |②-③-|
口口①口 |--④-|
口口口口 |--⑤-|
16
口口口① |①---|
口口③口 |②---|
口口口口 |③---|
②④④② |④---|
17
口口口口 |①---|
④口口口 |②-③-|
①口②③ |----|
口口口口 |④---|
18
口口①口 |①---|
口口②③ |②-③-|
⑥⑤④口 |--④-|
口口口口 |⑤-⑥-|
19
⑤口口④ |--①-|
③口口⑥ |②-③-|
口口口② |④-⑤-|
①口口口 |⑥---|
20
口①口口 |①---|
口口口口 |②---|
口口口口 |----|
②③③② |③---|
21
口口④口 |①---|
③②口⑤ |②-③-|
口口①口 |--④-|
口口口口 |--⑤-|
22
口口口口 |----|
口口口口 |①---|
口②口口 |----|
①口口① |②---|
23
③②口④ |①---|
口⑤①口 |②-③-|
口口口口 |--④-|
口口口口 |--⑤-|
24
口口口口 |①---|
③口①口 |②---|
口口口口 |③---|
②④④② |④---|
25
口口口口 |①---|
口④口口 |②-③-|
①口②③ |----|
口口口口 |④---|
26
口④⑤口 |①---|
口⑥口① |②-③-|
③②口口 |--④-|
口口口口 |⑤-⑥-|
27
口口口⑤ |①-②-|
④⑧①口 |③-④-|
口⑦口③ |⑤-⑥-|
②⑥口口 |⑦-⑧-|
28
口①口口 |①---|
③口口③ |②---|
口口口口 |③---|
②④④② |④---|
29
口口口口 |①---|
口①①口 |②---|
③口口③ |③---|
②④④② |④---|
30
③①①③ |①---|
④②②④ |②---|
⑤口口⑤ |③-④-|
⑥口口⑥ |⑤-⑥-|
31
口口口口 |----|
口口③口 |①---|
口②口口 |----|
口①①口 |②-③-|
32
口①③③ |①---|
口口口口 |②---|
口口口口 |③---|
②④④② |④---|
33
口口口口 |①---|
①①口口 |②---|
口口③③ |③---|
②④④② |④---|
34
④口⑤⑤ |①---|
口口①② |②---|
②①口③ |③-④-|
口口口口 |--⑤-|
35
⑬⑭⑮⑯ |①②③④|
⑤⑥⑦⑧ |⑤⑥⑦⑧|
⑨⑩⑪⑫ |⑨⑩⑪⑫|
①②③④ |⑬⑭⑮⑯|
36
口口口口 |----|
口①②口 |--①-|
③口口③ |②---|
口口口口 |③---|
37
①②③④ |①-②-|
口⑤⑤口 |③-④-|
口口口口 |----|
口口口口 |⑤---|
38
口口口口 |①---|
口口口口 |②---|
③口④⑤ |③---|
①口口② |④-⑤-|
39
⑤口口⑤ |--①-|
④③②① |②-③-|
口口口口 |④---|
口口口口 |⑤---|
40
口口口口 |----|
口口口① |①---|
②口口口 |②---|
口口口③ |③---|
41
口④口口 |①-②-|
口③口⑤ |③-④-|
⑤②口口 |----|
口①口口 |⑤---|
42
口口口口 |①---|
①④⑤口 |②---|
口③口① |③---|
②口口② |④-⑤-|
43
③②口① |--①-|
④口口④ |--②-|
口口口口 |③---|
口口口口 |④---|
44
口口口口 |----|
口口口口 |①---|
①口口② |②---|
口③口口 |③---|
45
口口④口 |①-②-|
口口③口 |③-④-|
口口②口 |----|
口口①口 |----|
46
口①②口 |①---|
口口口口 |②---|
③口④⑤ |③---|
口口口口 |④-⑤-|
47
口①口口 |--①-|
口②口口 |②-③-|
⑤③口⑤ |④---|
口④口口 |⑤---|
48
口口③口 |----|
②口口① |①---|
口口口口 |②---|
口口口口 |③---|
49
口口口口 |①-②-|
口口口口 |③-④-|
④③②① |----|
口口口口 |----|
50
口②口口 |①---|
①口③口 |②---|
口④⑤口 |③---|
口口口口 |④-⑤-|
51
口口口口 |--①-|
④口口⑤ |②-③-|
口口口口 |④---|
①②③④ |⑤---|
52
口①①口 |①---|
口③口⑤ |----|
②口④口 |②-③-|
口口口口 |④-⑤-|
53
口①口② |①---|
③口④口 |②---|
口口口口 |③---|
口⑤口口 |④-⑤-|
54
口口口② |--①-|
⑥口④口 |--②-|
口⑤口③ |③-④-|
口口口① |⑤-⑥-|
55
②口①口 |①---|
口④口③ |②---|
口口口口 |③---|
口口⑤口 |④-⑤-|
56
口口⑥口 |--①-|
口⑤口口 |--②-|
口口④口 |③-④-|
①③口② |⑤-⑥-|
57
口口口② |①---|
口口④口 |②---|
⑤口口① |③---|
口口③口 |④-⑤-|
58
①③口② |--①-|
口口④口 |--②-|
口⑤口口 |③-④-|
口口⑥口 |⑤-⑥-|
59
②口口口 |①---|
口④口口 |②---|
①口口⑤ |③---|
口③口口 |④-⑤-|
60
②口口① |--①-|
口④口⑥ |--②-|
③口⑤口 |③-④-|
口口口口 |⑤-⑥-|
61
口①口② |①---|
③口④口 |②---|
口口口口 |③---|
口⑤口口 |④-⑤-|
62
口口口② |--①-|
⑥口④口 |--②-|
口⑤口③ |③-④-|
口口口① |⑤-⑥-|
63
②口①口 |①---|
口④口③ |②---|
口口口口 |③---|
口口⑤口 |④-⑤-|
64
口口⑥口 |--①-|
口⑤口口 |--②-|
口口④口 |③-④-|
①③口② |⑤-⑥-|
65
口口口② |①---|
口口④口 |②---|
⑤口口① |③---|
口口③口 |④-⑤-|
66
①③口② |--①-|
口口④口 |--②-|
口⑤口口 |③-④-|
口口⑥口 |⑤-⑥-|
67
②口口口 |①---|
口④口口 |②---|
①口口⑤ |③---|
口③口口 |④-⑤-|
68
口②②① |--①-|
口口口口 |--②-|
口③口口 |③---|
口口④⑤ |④-⑤-|


不确定度: 0

最終更新:2013年03月23日 17:20