LOVE & JOY
木村由姫

BASIC

Level: 2
BPM: 173
Notes: 223

1
口口口口 |----|
口口口口 |----|
口口口口 |----|
口口口口 |----|
2
口口口口 |----|
口口口口 |----|
口口口口 |----|
口口口口 |----|
3
④口口② |①---|
①④②③ |②---|
口口口口 |③---|
口口口口 |④---|
4
口口口口 |①---|
口口口口 |②---|
④口口② |③---|
①④②③ |④---|
5
①④②③ |①---|
④口口② |②---|
口口口口 |③---|
口口口口 |④---|
6
口口口口 |①---|
口口口口 |②---|
①④②③ |③---|
④口口② |④---|
7
②③口口 |①---|
口②口口 |②---|
口④口口 |③---|
④①口口 |④---|
8
口口②③ |①---|
口口口② |②---|
口口口④ |③---|
口口④① |④---|
9
③②口口 |①---|
②口口口 |②---|
④口口口 |③---|
①④口口 |④---|
10
口口③② |①---|
口口②口 |②---|
口口④口 |③---|
口口①④ |④---|
11
④口口② |①---|
①④②③ |②---|
口口口口 |③---|
口口口口 |④---|
12
口口口口 |①---|
口口口口 |②---|
④口口② |③---|
①④②③ |④---|
13
①④②③ |①---|
④口口② |②---|
口口口口 |③---|
口口口口 |④---|
14
口口口口 |①---|
口口口口 |②---|
①④②③ |③---|
④口口② |④---|
15
②③口口 |①---|
口②口口 |②---|
口④口口 |③---|
④①口口 |④---|
16
口口②③ |①---|
口口口② |②---|
口口口④ |③---|
口口④① |④---|
17
③②口口 |①---|
②口口口 |②---|
④口口口 |③---|
①④口口 |④---|
18
口④⑤口 |①---|
④③③⑤ |②---|
⑥②②口 |③-④-|
口⑥①口 |⑤-⑥-|
19
②口口② |①---|
④③③⑤ |②---|
口④⑤口 |③---|
①口口① |④-⑤-|
20
③口口② |--①-|
④③②口 |--②-|
口口口口 |③---|
口①①口 |④---|
21
口口口口 |①---|
⑤③③④ |②---|
①⑤④② |③---|
②口口① |④-⑤-|
22
②口口③ |--①-|
④②③口 |--②-|
口口口口 |③---|
口①①口 |④---|
23
②口口口 |①---|
口④③① |②---|
①③④口 |③---|
口口口② |④---|
24
④②②⑤ |①---|
①口口③ |②---|
①口口③ |③---|
口口口口 |④-⑤-|
25
口口口口 |①---|
口①口口 |--②-|
③口口④ |--③-|
口②②口 |④---|
26
①⑤④① |①---|
⑤②②④ |②---|
口③③⑥ |③-④-|
口口⑥口 |⑤-⑥-|
27
②口口② |①---|
⑤③③④ |②---|
口⑤④口 |③---|
①口口① |④-⑤-|
28
②口口③ |--①-|
④②③口 |--②-|
口口口口 |③---|
口①①口 |④---|
29
口口口口 |①---|
④③③⑤ |②---|
②④⑤① |③---|
①口口② |④-⑤-|
30
③口口② |--①-|
④③②口 |--②-|
口口口口 |③---|
口①①口 |④---|
31
口口②口 |①---|
口③④① |②---|
①④③口 |③---|
口②口口 |④---|
32
④②②⑤ |①---|
③口口① |②---|
③口口① |③---|
口口口口 |④-⑤-|
33
口口口口 |①---|
口①口口 |--②-|
口②②口 |--③-|
③口口④ |④---|
34
口①①口 |①---|
口②②口 |②---|
口③③口 |③---|
口④④口 |④---|
35
口口⑤口 |①-②-|
④⑥口口 |--③-|
③口口① |--④-|
②口口口 |⑤-⑥-|
36
口口口① |①-②-|
口口口口 |--③-|
⑥②口口 |--④-|
④③口⑤ |⑤-⑥-|
37
口③④⑤ |--①-|
①②口口 |--②-|
口口口口 |--③-|
口口口口 |④-⑤-|
38
口口口口 |--①-|
口口口① |--②-|
口口③② |--③-|
④口口⑤ |④-⑤-|
39
口⑤口口 |①-②-|
口口⑥④ |--③-|
口①口③ |--④-|
口口②口 |⑤-⑥-|
40
①口口口 |①-②-|
口口口⑥ |--③-|
⑤口②③ |--④-|
口口口④ |⑤-⑥-|
41
⑤④③② |--①-|
口口①口 |--②-|
口口口口 |--③-|
口口口口 |④-⑤-|
42
口口口口 |--①-|
口①口口 |--②-|
②口口口 |--③-|
口③④⑤ |④-⑤-|
43
口③口口 |①-②-|
口①②⑥ |③-④-|
⑦⑤④口 |⑤---|
口口口口 |⑥-⑦-|
44
口口口口 |--①-|
①⑤口口 |②---|
口口④② |--③-|
口③口口 |④-⑤-|
45
口口口口 |--①-|
①口③⑦ |②-③-|
口⑤口口 |④-⑤-|
④口②⑥ |⑥-⑦-|
46
口②①口 |--①-|
③口口口 |--②-|
口口口④ |--③-|
⑤口口口 |④-⑤-|
47
口口④口 |①-②-|
⑤③口口 |③-④-|
⑦口②口 |⑤---|
口①口⑥ |⑥-⑦-|
48
口口口口 |--①-|
口口⑤口 |②---|
口④口② |--③-|
①口③口 |④-⑤-|
49
口口口⑦ |--①-|
⑥①口③ |②-③-|
口口口⑤ |④-⑤-|
口④口② |⑥-⑦-|
50
口④口口 |--①-|
口④口口 |--②-|
①口②③ |③---|
口口口口 |--④-|
51
口口①② |①-②-|
口口口③ |③-④-|
口口口④
口口口口

口⑥⑥口
口口口口
口口口口 |⑤---|
口口口⑤ |--⑥-|
52
口口口口 |①-②-|
口①口口 |③-④-|
口④②口
口③③口

口口口口
口⑥⑤口
口口口口 |⑤---|
口口口口 |--⑥-|
53
⑧口口④ |①-②-|
⑦口口③ |③-④-|
⑥口口② |⑤-⑥-|
⑤口口① |⑦-⑧-|
54
口②①口 |①--②|
⑤①②口 |--③-|
口口口⑥ |④--⑤|
口④③口 |--⑥-|
55
口④⑤口 |①---|
④③③⑤ |②---|
⑥②②口 |③-④-|
①⑥口① |⑤-⑥-|
56
②口口② |①---|
④③③⑤ |②---|
口④⑤口 |③---|
①口口① |④-⑤-|
57
③口口② |--①-|
④③②口 |--②-|
口口口口 |③---|
口①①口 |④---|
58
口口口口 |①---|
⑤③③④ |②---|
①⑤④② |③---|
②口口① |④-⑤-|
59
②口口③ |--①-|
④②③口 |--②-|
口口口口 |③---|
口①①口 |④---|
60
②口口口 |①---|
口④③① |②---|
①③④口 |③---|
口口口② |④---|
61
④②②⑤ |①---|
①口口③ |②---|
①口口③ |③---|
口口口口 |④-⑤-|
62
口口口口 |①---|
口①口口 |--②-|
③口口④ |--③-|
口②②口 |④---|
63
①⑤④① |①---|
⑤②②④ |②---|
口③③⑥ |③-④-|
口口⑥口 |⑤-⑥-|
64
②口口② |①---|
⑤③③④ |②---|
口⑤④口 |③---|
①口口① |④-⑤-|
65
②口口③ |--①-|
④②③口 |--②-|
口口口口 |③---|
口①①口 |④---|
66
口口口口 |①---|
④③③⑤ |②---|
②④⑤① |③---|
①口口② |④-⑤-|
67
③口口② |--①-|
④③②口 |--②-|
口口口口 |③---|
口①①口 |④---|
68
口口②口 |①---|
口③④① |②---|
①④③口 |③---|
口②口口 |④---|
69
④②②⑤ |①---|
③口口① |②---|
③口口① |③---|
口口口口 |④-⑤-|
70
口口口口 |①---|
口①口口 |--②-|
口②②口 |----|
③口口③ |③---|
71
口①①口 |①---|
口②②口 |②---|
口③③口 |③---|
口④④口 |④---|


不确定度: 0

最終更新:2013年03月23日 20:28