LOVE & JOY
木村由姫

EXTREME

Level: 8
BPM: 173
Notes: 615

1
口口口口 |----|
口口口口 |----|
口口口口 |----|
口口口口 |----|
2
口口口口 |----|
口口口口 |----|
口口口口 |----|
口口口口 |----|
3
③②④① |①---|
②④②④ |②---|
口口口口 |③---|
口口口口 |④---|
4
口口口口 |①---|
口口口口 |②---|
③②④① |③---|
②④②④ |④---|
5
②④②④ |①---|
③②④① |②---|
口口口口 |③---|
口口口口 |④---|
6
口口口口 |①---|
口口口口 |②---|
②④②④ |③---|
③②④① |④---|
7
①④口口 |①---|
④②口口 |②---|
②④口口 |③---|
③②口口 |④---|
8
口口①④ |①---|
口口④② |②---|
口口②④ |③---|
口口③② |④---|
9
④①口口 |①---|
②④口口 |②---|
④②口口 |③---|
②③口口 |④---|
10
口口④① |①---|
口口②④ |②---|
口口④② |③---|
口口②③ |④---|
11
③②④① |①---|
②④②④ |②---|
口口口口 |③---|
口口口口 |④---|
12
口口口口 |①---|
口口口口 |②---|
③②④① |③---|
②④②④ |④---|
13
②④②④ |①---|
③②④① |②---|
口口口口 |③---|
口口口口 |④---|
14
口口口口 |①---|
口口口口 |②---|
②④②④ |③---|
③②④① |④---|
15
①④口口 |①---|
④②口口 |②---|
②④口口 |③---|
③②口口 |④---|
16
口口①④ |①---|
口口④② |②---|
口口②④ |③---|
口口③② |④---|
17
④①口口 |①---|
②④口口 |②---|
④②口口 |③---|
②③口口 |④---|
18
⑥③①① |①---|
⑥⑥⑤③ |②---|
口④⑤⑤ |③-④-|
②④④② |⑤-⑥-|
19
口口口① |①---|
口口口口 |②---|
①口口口
②口口②

口口口⑤
④口口口
口③⑤口 |③---|
口④③口 |④-⑤-|
20
③口口口 |--①-|
④①①② |--②-|
口③口口 |③---|
口口②口 |④---|
21
口口口② |①---|
口口①口 |②---|
口口②口
①口口口

口口④口
口⑤口口
口口口④ |③---|
⑤③③口 |④-⑤-|
22
口②口口 |--①-|
④口③口 |--②-|
②①①口 |③---|
口口口③ |④---|
23
③②④① |①---|
口口口口 |②---|
口口口口 |③---|
①②④③ |④---|
24
口②口① |①---|
口口口口 |②---|
口口口口
①②口口

③口口⑤
④口⑤口
口④口口 |③---|
口口口③ |④-⑤-|
25
口②②口 |①---|
③①口④ |--②-|
口口①口 |--③-|
口③④口 |④---|
26
口②口② |①---|
口口口口 |②---|
口口口口
①口口①

口口⑤口
③④⑤⑤
⑥④④③ |③-④-|
⑥⑥口口 |⑤-⑥-|
27
①②⑤③ |①---|
口④口口 |②---|
口③口⑤ |③---|
④口②① |④-⑤-|
28
口③口口 |--①-|
④口②口 |--②-|
③口口口 |③---|
口①①② |④---|
29
①口口口 |①---|
口口②口 |②---|
口口①口
口口口②

口③③⑤
④口口口
口口⑤口 |③---|
口④口口 |④-⑤-|
30
③口口口 |--①-|
④①①② |--②-|
口③口口 |③---|
口口②口 |④---|
31
③②④① |①---|
口口口口 |②---|
口口口口 |③---|
①②④③ |④---|
32
③②口① |①---|
⑤口口④ |②---|
口⑤④口 |③---|
①②口③ |④-⑤-|
33
口口口③ |①---|
④②②口 |--②-|
口口③① |--③-|
口④①口 |④---|
34
口③③④ |①---|
④口口口 |②---|
②口口② |③---|
①口口① |④---|
35
①口口④ |①-②-|
⑤①④③ |--③-|
⑥⑤③② |--④-|
口⑥②口 |⑤-⑥-|
36
①口口口 |①-②-|
口①口口 |--③-|
口口③②
口口③②

⑥口⑤④
口⑥⑤④
口口口口 |--④-|
口口口口 |⑤-⑥-|
37
口口⑤⑤ |--①-|
①口④④ |--②-|
②①口③ |--③-|
口②③口 |④-⑤-|
38
①⑤⑤口 |--①-|
②①口口 |--②-|
③②口口 |--③-|
④③口④ |④-⑤-|
39
①口口④ |①-②-|
⑤①④③ |--③-|
⑥⑤③② |--④-|
口⑥②口 |⑤-⑥-|
40
①口口口 |①-②-|
口①口口 |--③-|
口口③②
口口③②

⑥口⑤④
口⑥⑤④
口口口口 |--④-|
口口口口 |⑤-⑥-|
41
口口⑤⑤ |--①-|
①口④④ |--②-|
②①口③ |--③-|
口②③口 |④-⑤-|
42
①⑤⑤口 |--①-|
②①口口 |--②-|
③②口口 |--③-|
④③口④ |④-⑤-|
43
②口口口 |①-②-|
⑥③④口 |③-④-|
口口⑦⑤ |⑤---|
口口①口 |⑥-⑦-|
44
口口⑤口 |--①-|
口④口口 |②---|
③①口口 |--③-|
口口口② |④-⑤-|
45
口口口口 |--①-|
口⑦⑥① |②-③-|
口③②⑤ |④-⑤-|
④口口口 |⑥-⑦-|
46
口口口口 |--①-|
①口口口 |--②-|
③口②④ |--③-|
口⑤口口 |④-⑤-|
47
⑥⑥⑤⑤ |①-②-|
②②③③ |③-④-|
口④⑦⑦ |⑤---|
④口①① |⑥-⑦-|
48
口口口口 |--①-|
③口①① |②---|
口④口口 |--③-|
②②⑤口 |④-⑤-|
49
④⑥口⑤ |--①-|
口③②⑦ |②-③-|
口口口① |④-⑤-|
口口口口 |⑥-⑦-|
50
口④口口 |--①-|
口④口口 |--②-|
①口口口 |③---|
口口②③ |--④-|
51
口口①② |①-②-|
口口口③ |③-④-|
口口口④
口口口口

口⑥⑥口
口口口口
口口口口 |⑤---|
口口口⑤ |--⑥-|
52
口口口口 |①-②-|
⑥①⑤口 |③-④-|
口④②口 |⑤---|
口③③口 |--⑥-|
53
口口口口 |①-②-|
口④口③ |③-④-|
口⑥①口 |⑤-⑥-|
⑤②⑦⑧ |⑦-⑧-|
54
①②①② |①--②|
⑥④⑥口 |--③-|
口口③④ |④--⑤|
③⑤⑤口 |--⑥-|
55
⑥③①口 |①---|
⑥⑥⑤③ |②---|
①④⑤⑤ |③-④-|
②④④② |⑤-⑥-|
56
口口口① |①---|
口口口口 |②---|
①口口口
②口口②

口口口⑤
④口口口
口③⑤口 |③---|
口④③口 |④-⑤-|
57
③口口口 |--①-|
④①①② |--②-|
口③口口 |③---|
口口②口 |④---|
58
口口口② |①---|
口口①口 |②---|
口口②口
①口口口

口口④口
口⑤口口
口口口④ |③---|
⑤③③口 |④-⑤-|
59
口②口口 |--①-|
④口③口 |--②-|
②①①口 |③---|
口口口③ |④---|
60
③②④① |①---|
口口口口 |②---|
口口口口 |③---|
①②④③ |④---|
61
口②口① |①---|
口口口口 |②---|
口口口口
①②口口

③口口⑤
④口⑤口
口④口口 |③---|
口口口③ |④-⑤-|
62
口②②口 |①---|
③①口④ |--②-|
口口①口 |--③-|
口③④口 |④---|
63
口②口② |①---|
口口口口 |②---|
口口口口
①口口①

口口⑤口
③④⑤⑤
⑥④④③ |③-④-|
⑥⑥口口 |⑤-⑥-|
64
①②⑤③ |①---|
口④口口 |②---|
口③口⑤ |③---|
④口②① |④-⑤-|
65
口③口口 |--①-|
④口②口 |--②-|
③口口口 |③---|
口①①② |④---|
66
①口口口 |①---|
口口②口 |②---|
口口①口
口口口②

口③③⑤
④口口口
口口⑤口 |③---|
口④口口 |④-⑤-|
67
③口口口 |--①-|
④①①② |--②-|
口③口口 |③---|
口口②口 |④---|
68
③②④① |①---|
口口口口 |②---|
口口口口 |③---|
①②④③ |④---|
69
③②口① |①---|
⑤口口④ |②---|
口⑤④口 |③---|
①②口③ |④-⑤-|
70
口口口③ |①---|
③②②口 |--②-|
口口③① |----|
口③①口 |③---|
71
④口口④ |①---|
口③③口 |②---|
②口口② |③---|
①口口① |④---|


不确定度: 0

最終更新:2013年03月23日 20:27