Lost Boy
SEAMO

ADVANCED

Level: 7
BPM: 100
Notes: 414

1
口口口口 |----|
口口口口 |----|
口口口口 |----|
口口口口 |----|
2
口口口② |①--②|
⑤①口口 |--③-|
口口④③ |④--⑤|
⑥口口口 |--⑥-|
3
口口口口 |①--②|
④④口口 |--③-|
口口口② |④---|
口①口③ |----|
4
口口②口 |①--②|
①⑤口口 |--③-|
口口③④ |④--⑤|
口⑥口口 |--⑥-|
5
口口口口 |①--②|
口口口口 |--③-|
口口②口
①口③口

口口口口
口口口口
口口口口 |④---|
④④口口 |----|
6
⑦⑧④③ |①-②-|
⑨口⑤② |③-④-|
⑥⑥口① |⑤--⑥|
口口口口 |-⑦⑧⑨|
7
口口⑤⑤ |①-②-|
口①⑥⑥ |③-④-|
口口⑦⑦ |⑤--⑥|
口④③② |--⑦-|
8
口口口口 |--①-|
③口口口 |②-③-|
口口口口
②口①口

口口口口
口⑤④口
口口⑥口 |④-⑤⑥|
口⑦⑦口 |--⑦-|
9
③④②① |--①-|
口口口口 |②-③-|
⑧口口⑧ |④-⑤⑥|
⑦⑤⑥口 |-⑦⑧-|
10
③③⑦⑦ |①-②-|
①①①① |③--④|
⑥①①口 |⑤-⑥-|
⑤⑧④② |⑦--⑧|
11
口口口口 |①-②-|
③④⑥⑤ |③④-⑤|
口⑦⑧② |⑥-⑦⑧|
口口口① |----|
12
③③⑦⑦ |①-②-|
口口口口 |③--④|
⑥口口② |⑤-⑥-|
⑤⑧④① |⑦--⑧|
13
口口口口 |①-②-|
③④口⑤ |③④-⑤|
口口口②
口口口①

口口口口
口口⑥口
⑨⑦⑧⑨ |⑥-⑦⑧|
口口口口 |--⑨-|
14
口②③口 |-①②③|
①口口④ |④⑤⑥-|
口口⑤口
口口⑥口

口口口口
口⑬口口
⑧口⑫⑩ |⑦⑧⑨⑩|
⑦⑪口⑨ |-⑪⑫⑬|
15
①⑥口① |①-②-|
②口⑤② |③④⑤⑥|
口④口口
口口③口

口⑬⑫⑪
口口口口
⑩口口⑧ |⑦⑧⑨⑩|
⑨口口⑦ |-⑪⑫⑬|
16
①口口口 |①②-③|
②口③④ |④⑤⑥⑦|
⑤⑥⑦口
口口口口

口口口口
⑩口口⑪
口口口⑧ |⑧⑨-⑩|
口⑫⑬⑨ |⑪⑫⑬-|
17
①⑫⑫② |-①②③|
③④⑤⑥ |④⑤⑥⑦|
⑦⑧⑨⑩ |⑧⑨⑩⑪|
口⑪口口 |--⑫-|
18
口⑦⑧⑨ |-①-②|
⑥⑥①① |-③④⑤|
⑤⑤②② |-⑥-⑦|
口④③口 |⑧--⑨|
19
⑦口口口 |①②③④|
⑤口口口 |⑤⑥⑦⑧|
①口⑧②
③口⑥④

口⑨⑭⑭
⑬⑪⑩⑫
口口口口 |⑨⑩⑪⑫|
口口口口 |⑬--⑭|
20
②②口口 |①--②|
④⑤⑥⑦ |③--④|
①①③③ |⑤⑥⑦-|
⑧⑨⑩口 |-⑧⑨⑩|
21
⑤口口⑤ |①②③④|
⑥③④⑥ |⑤-⑥⑦|
口①②口
口⑦口口

口口⑫口
口⑪口口
口口口⑩ |-⑧-⑨|
⑨口⑧口 |⑩⑪⑫-|
22
口④⑤口 |-①②-|
③⑦⑧③ |③-④⑤|
⑥①②⑨ |--⑥⑦|
口口⑩口 |⑧⑨⑩-|
23
⑥⑩⑨⑦ |-①②③|
⑪④⑤⑧ |④⑤⑥⑦|
口⑫③口 |--⑧⑨|
①②口口 |⑩⑪⑫-|
24
口④③口 |-①②③|
⑥口口⑥ |④⑤⑥-|
口口口⑤
②口口①

⑧口口⑨
口⑧⑨口
口⑦⑦口 |⑦-⑧⑨|
⑩⑪⑫口 |-⑩⑪⑫|
25
口口口⑧ |①②③④|
④⑤⑥⑦ |⑤⑥⑦⑧|
口③②①
口口口口

口⑫⑨口
⑬⑭⑮口
口口⑪口 |⑨⑩⑪⑫|
口⑩口口 |-⑬⑭⑮|
26
口⑤⑥口 |①②③④|
口⑦口口 |⑤⑥⑦⑧|
⑧口口口
①③④②

⑩口口⑩
口口口口
口⑨⑨口 |⑨-⑩-|
口⑬⑫⑪ |-⑪⑫⑬|
27
口口口口 |①②③④|
⑤②③④ |-⑤-⑥|
①口口⑥
口口口口

⑧⑨口⑧
口口⑩口
⑪⑦⑦口 |⑦-⑧-|
口口口⑫ |⑨⑩⑪⑫|
28
口口③口 |①-②-|
②④⑤② |-③④⑤|
口口口口
口①①口

口口口口
口口口口
⑥⑥⑦⑦ |⑥-⑦-|
⑧⑨⑩口 |-⑧⑨⑩|
29
⑨⑤⑥⑨ |①②③④|
⑦③④② |⑤⑥⑦-|
①⑧⑧口 |⑧-⑨-|
口口口口 |----|
30
②口口③ |①---|
①②③① |--②③|
口①①口 |----|
口口口口 |----|
31
口口③② |--①-|
口口口① |②-③-|
①口口口
②③口口

口口口口
⑤口口⑥
口④④口 |④-⑤⑥|
⑦口口⑦ |--⑦-|
32
⑤口口⑤ |①---|
②④④③ |--②③|
①②③① |---④|
口①①口 |--⑤-|
33
口口口③ |--①-|
①口口② |②-③-|
②口口①
③口口口

口口④口
口⑤⑥口
⑦口口⑦ |④-⑤⑥|
口④口口 |--⑦-|
34
口①③口 |①-②-|
口口口口 |③-④-|
口②④口
口口口口

⑥口口⑥
口口口口
⑤⑨口⑤ |⑤--⑥|
口⑦⑧口 |-⑦⑧⑨|
35
口口口口 |①-②-|
②口口④ |③-④-|
口口①口
③口口口

口口口口
口口口口
口口⑥口 |⑤--⑥|
口口⑦⑤ |--⑦-|
36
①①③③ |--①-|
⑤⑤⑥⑥ |②-③-|
②②④④ |④-⑤⑥|
⑦口口⑦ |--⑦-|
37
③口②① |--①-|
口口口口 |②-③-|
①②口③
口口口口

口④口口
口口口口
⑧口④⑧ |④-⑤⑥|
⑦⑤⑥口 |-⑦⑧-|
38
口口口口 |①---|
①①①① |----|
口①①口 |----|
口口口口 |----|


不确定度: 0

最終更新:2013年03月23日 16:58