ギタ・ドラ・jubeat大夏祭りのテーマ
DNM盛り上げ隊

ADVANCED

Level: 8
BPM: 157
Notes: 422

1
口口口口 |----|
口口口口 |----|
口口口口 |----|
口口口口 |----|
2
④①口② |①--②|
口口③口 |③-④-|
⑧⑤口⑥ |⑤--⑥|
口口⑦口 |⑦-⑧-|
3
④①口② |①--②|
口⑩③口 |③-④-|
⑨⑤口⑦ |⑤⑥-⑦|
⑥口⑧口 |⑧-⑨⑩|
4
④①口② |①--②|
口口③口 |③-④-|
⑧⑤口⑥ |⑤--⑥|
口口⑦口 |⑦-⑧-|
5
④①⑤② |①--②|
⑥口③口 |③-④-|
口口口⑦ |⑤-⑥-|
口⑧口口 |⑦-⑧-|
6
口口口口 |①②--|
④口口② |----|
口③①口 |③④--|
④口口② |----|
7
①口口④ |①②③④|
口③②口 |----|
口口口口 |----|
口口口口 |----|
8
③口口③ |①---|
②口口② |②---|
口①①口 |③---|
口④④口 |--④-|
9
②口口② |----|
口③④口 |①---|
口口口口 |②-③④|
①口口① |----|
10
口口口口 |①②--|
④口口② |----|
口③①口 |③④--|
④口口② |----|
11
①口口④ |①②③④|
口③②口 |----|
口口口口 |----|
口口口口 |----|
12
⑤⑨⑨⑧ |①②--|
④⑦⑥② |③④--|
⑨③①⑨ |⑤⑥⑦⑧|
④口口② |--⑨-|
13
⑤口口⑤ |①-②-|
⑤④口⑤ |③-④-|
口②③口 |⑤---|
口口①口 |----|
14
口口口口 |--①-|
口口口口 |②-③-|
口①④口 |④-⑤-|
③②⑤⑥ |⑥---|
15
①口口① |①---|
②③③② |--②-|
口④④口 |--③-|
口口口口 |④---|
16
口口口口 |①-②-|
②口口② |----|
①口口① |----|
口口口口 |----|
17
口口口口 |----|
口口口口 |----|
口口口口 |----|
口口口口 |----|
18
①口④口 |--①-|
口②口⑤ |②-③-|
③口⑥口 |④-⑤-|
口口口⑦ |⑥-⑦-|
19
②口口③ |----|
口②③口 |--①-|
口口口口 |----|
口①①口 |②-③-|
20
口口口口 |--①-|
口口口口 |----|
口口口口 |----|
口①①口 |----|
21
口口口口 |----|
口口口口 |----|
口口口口 |----|
口口口口 |----|
22
①口口口 |--①-|
②④口口 |②-③-|
⑤③口口 |④-⑤-|
⑥⑦口口 |⑥-⑦-|
23
口口①口 |①-②-|
口口②④ |③-④-|
口口⑤③ |⑤-⑥-|
口口⑥⑦ |⑦---|
24
口⑦口口 |--①-|
③⑥口口 |②-③-|
②口口⑤ |④-⑤-|
①口口④ |⑥-⑦-|
25
①口口① |①---|
②口口② |②---|
口口口口
口口口口

④口口⑤
口口口口
口口口口 |③---|
③口口③ |④-⑤-|
26
口口口口 |①---|
口①①口 |--②-|
①口口① |③---|
口口②③ |----|
27
①口口② |----|
口口口口 |----|
口口口口 |----|
口口口口 |①-②-|
28
口口①口 |①---|
口①口① |--②-|
口口①口 |③---|
口①②③ |----|
29
①①①口 |----|
口①口口 |----|
口①口口 |--①-|
口口口口 |----|
30
口口⑤② |①--②|
①⑥③⑨ |③-④-|
口⑦⑩⑧ |⑤⑥⑦-|
口口④口 |⑧-⑨⑩|
31
③口口② |①-②-|
口口口口 |③---|
①口⑤口 |----|
口口④口 |--④⑤|
32
③口口② |①-②-|
⑤①口④ |③-④-|
口口口⑥ |⑤-⑥-|
⑦口口⑦ |--⑦-|
33
①③⑥① |--①-|
②④口② |---②----|
口⑤口口 |③④⑤-|
口口口口 |⑥---|
34
口口口口 |①②--|
④口口② |----|
口③①口 |③④--|
④口口② |----|
35
①口口④ |①②③④|
口③②口 |----|
口口口口 |----|
口口口口 |----|
36
⑤⑨⑨⑧ |①②--|
④⑦⑥② |③④--|
⑨③①⑨ |⑤⑥⑦⑧|
④口口② |--⑨-|
37
⑤口口⑤ |①-②-|
⑤④口⑤ |③-④-|
口②③口 |⑤---|
口口①口 |----|
38
⑦口口⑦ |--①-|
口口口口 |②-③-|
口①④口 |④-⑤-|
③②⑤⑥ |⑥-⑦-|
39
口口口口 |----|
①②②① |--①-|
口③③口 |--②-|
口口口口 |③---|
40
口口口口 |①-②-|
②口口② |----|
①口口① |----|
口口口口 |----|
41
口口口口 |----|
口口口口 |----|
口口口口 |----|
口口口口 |----|
42
①口④口 |--①-|
口②口⑤ |②-③-|
③口⑥口 |④-⑤-|
口口口⑦ |⑥-⑦-|
43
②口口③ |----|
口②③口 |--①-|
口口口口 |----|
口①①口 |②-③-|
44
口口口口 |--①-|
口口口口 |----|
口口口口 |----|
口①①口 |----|
45
口口口口 |----|
口口口口 |----|
口口口口 |----|
口口口口 |----|
46
①口口口 |--①-|
②④口口 |②-③-|
⑤③口口 |④-⑤-|
⑥⑦口口 |⑥-⑦-|
47
口口①口 |①-②-|
口口②④ |③-④-|
口口⑤③ |⑤-⑥-|
口口⑥⑦ |⑦---|
48
口⑦口口 |--①-|
③⑥口口 |②-③-|
②口口⑤ |④-⑤-|
①口口④ |⑥-⑦-|
49
①口口① |①---|
②口口② |②---|
口口口口
口口口口

⑤口口口
口口口口
③口口③ |③---|
④口口口 |④-⑤-|
50
口口①③ |①---|
口①口口 |--②-|
口口①口 |③---|
口①口② |----|
51
②口口口 |----|
口口口口 |----|
口口口口 |----|
①口口口 |①-②-|
52
口口口③ |①---|
口口①口 |--②-|
口①①口 |③---|
口①①② |----|
53
③口③口 |----|
口①口① |----|
口口口口 |--①-|
②口②口 |②-③-|
54
口口口口 |----|
口口口口 |----|
口口口口 |----|
口口口口 |----|
55
口口口口 |----|
口口口口 |----|
口口口口 |----|
口口口口 |----|
56
⑤⑨⑨⑧ |①②--|
④⑦⑥② |③④--|
⑨③①⑨ |⑤⑥⑦⑧|
④口口② |--⑨-|
57
⑤口口⑤ |①-②-|
⑤④口⑤ |③-④-|
口②③口 |⑤---|
口口①口 |----|
58
⑥口口④ |①---|
口⑤③口 |②---|
⑦②②⑦ |③④-⑤|
口①①口 |⑥-⑦-|
59
⑧①①口 |①---|
③⑥⑦口 |②-③④|
口④口口 |⑤-⑥-|
②⑤口口 |⑦-⑧-|
60
口⑥⑤① |①-②③|
口口口② |④-⑤-|
⑧口③⑨ |⑥-⑦-|
口口④⑦ |⑧-⑨-|
61
⑧⑤⑦⑥ |①-②③|
②口口口 |④-⑤-|
口③口口 |⑥---|
①④口口 |⑦-⑧-|
62
口口口④ |①-②③|
口⑨③口 |④-⑤-|
①⑧②⑤ |⑥-⑦-|
⑦口⑥口 |--⑧⑨|
63
①⑨口⑥ |①-②-|
口口⑤口 |③-④⑤|
②⑧④⑦ |⑥-⑦-|
口③口口 |⑧-⑨-|
64
口⑥③口 |①-②-|
④口口① |③---|
口口口口 |④-⑤-|
口⑤②口 |⑥---|
65
③口③口 |①-②-|
口①口① |③---|
口口口口 |----|
②口②口 |----|
66
③⑥③⑥ |①-②-|
④①④① |③---|
口口口口 |④-⑤-|
②⑤②⑤ |⑥---|
67
口口①口 |①---|
口①口① |----|
口口①口 |----|
口口口口 |----|

不确定度: 0

最終更新:2012年11月06日 22:25