Lost Boy
SEAMO

EXTREME

Level: 8
BPM: 100
Notes: 490

1
口口口口 |----|
口口口口 |----|
口口口口 |----|
口口口口 |----|
2
口口口口 |①--②|
口①④口 |--③-|
⑤口口② |④--⑤|
⑥⑤②③ |--⑥-|
3
口①口口 |①--②|
口口口② |--③-|
口口②③ |④---|
口④④口 |----|
4
口口口口 |①--②|
口④①口 |--③-|
②口口⑤ |④--⑤|
③②⑤⑥ |--⑥-|
5
口口①口 |①--②|
②口口口 |--③-|
③②口口 |④---|
口④④口 |----|
6
④口①① |①-②-|
口②②口 |③-④-|
③③口口
口口口口

口口口口
口口⑨⑤
⑧口⑤⑥ |⑤--⑥|
口口⑥⑦ |-⑦⑧⑨|
7
口①口口 |①-②-|
②②口口 |③-④-|
口③③口
口口④④

口口⑤口
口口⑥⑤
口口⑦⑥ |⑤--⑥|
口口口⑦ |--⑦-|
8
②①口口 |--①-|
①②口口 |②-③-|
口口口③
口口③口

口口口⑥
⑦口⑥口
⑤口④⑦ |④-⑤⑥|
口⑤口④ |--⑦-|
9
口口③② |--①-|
口口口① |②-③-|
①口口口
②③口口

口④口⑦
口⑧⑧口
⑤口口⑥ |④-⑤⑥|
口口④口 |-⑦⑧-|
10
③③⑦⑦ |①-②-|
①⑧④① |③--④|
⑤①①口 |⑤-⑥-|
⑥①①② |⑦--⑧|
11
口③⑤口 |①-②-|
口⑦⑦口 |③④-⑤|
口④⑥① |⑥-⑦⑧|
口⑧⑧② |----|
12
③③⑦⑦ |①-②-|
口⑧④口 |③--④|
⑤口口① |⑤-⑥-|
⑥口口② |⑦--⑧|
13
⑨③⑤⑨ |①-②-|
口⑦⑦口 |③④-⑤|
口④⑥① |⑥-⑦⑧|
口⑧⑧② |--⑨-|
14
口口⑫口 |-①-②|
⑥⑪②⑨ |③④⑤-|
①③⑩① |⑥⑦⑧⑨|
⑦⑤④⑧ |-⑩⑪⑫|
15
口①口口 |①-②-|
⑥口②⑤ |③④⑤⑥|
①④口口
口③③②

⑩口口⑦
口⑪⑫口
⑨口口⑧ |⑦⑧⑨⑩|
口口⑬口 |-⑪⑫⑬|
16
⑤③④⑥ |①②-③|
口口口口 |④⑤⑥⑦|
口①①⑦
②口口②

口口口⑬
⑧⑪⑫⑧
⑩口口口 |⑧⑨-⑩|
⑨口口⑨ |⑪⑫⑬-|
17
⑨口口⑩ |-①②③|
⑤⑥⑦⑧ |④⑤⑥⑦|
③⑪⑪④ |⑧⑨⑩⑪|
⑫①②⑫ |--⑫-|
18
①口口口 |-①-②|
口①②口 |-③④⑤|
③②口⑤
④③⑤口

口口⑧⑦
口⑥⑦口
口口⑥口 |-⑥-⑦|
口口口⑨ |⑧--⑨|
19
①口口④ |①②③④|
⑧口口⑤ |⑤⑥⑦⑧|
口②③口
口⑦⑥口

口口⑭口
口⑩⑪⑭
口⑬口口 |⑨⑩⑪⑫|
⑨口口⑫ |⑬--⑭|
20
⑧②⑩⑨ |①--②|
②⑥⑦口 |③--④|
①口口③ |⑤⑥⑦-|
④①③⑤ |-⑧⑨⑩|
21
口口口口 |①②③④|
⑤口③⑤ |⑤-⑥⑦|
①⑤⑤④
⑥②⑦⑥

⑧⑧口⑫
⑪口⑫⑩
⑨⑪⑩口 |-⑧-⑨|
口⑨口口 |⑩⑪⑫-|
22
口口②口 |-①②-|
④口口口 |③-④⑤|
⑤口口口
①口③③

口口口口
口⑧⑨⑥
口⑦⑩⑦ |--⑥⑦|
口⑥⑨⑧ |⑧⑨⑩-|
23
口口③① |-①②③|
④口口⑤ |④⑤⑥⑦|
②口口口
口⑥⑦口

⑧⑨⑩口
⑪⑫⑪口
⑩⑨⑧口 |--⑧⑨|
口口口口 |⑩⑪⑫-|
24
③口口② |-①②③|
⑤口口口 |④⑤⑥⑦|
⑦口口⑥
①口口④

⑬口口口
口⑩⑨口
口口口口 |⑧⑨⑩⑪|
⑭⑧⑪⑫ |-⑫⑬⑭|
25
口口口① |①②③④|
④⑥⑧③ |⑤⑥⑦⑧|
②口口⑤
口口⑦口

口⑪⑩口
⑬口口口
⑮⑨⑫⑭ |⑨⑩⑪⑫|
口口口口 |-⑬⑭⑮|
26
④口口口 |①②③④|
口⑥⑤① |⑤⑥⑦⑧|
口口口口
⑧③②⑦

口⑩口口
⑩口口⑩
⑪口⑨⑨ |⑨-⑩-|
⑬口口⑫ |-⑪⑫⑬|
27
口④④口 |①②③④|
⑤①②⑤ |-⑤-⑥|
口口口③
口口口⑥

⑧口口⑧
口⑪⑧口
⑦⑦口口 |⑦-⑧-|
⑫⑨⑩口 |⑨⑩⑪⑫|
28
口③②口 |①-②-|
②④④② |-③④-|
口口①①
口口口口

口⑦⑧口
⑨口口口
⑥口口⑥ |⑤-⑥-|
口⑤⑤口 |-⑦⑧⑨|
29
口口口口 |①②③④|
口①②③ |⑤⑥⑦-|
⑥口④⑦
口口⑤口

⑨口口⑨
口⑨⑨口
口口口口 |⑧-⑨-|
⑧口口⑧ |----|
30
③③③口 |①---|
①口口① |--②③|
口①①口 |----|
口②②② |----|
31
③口口口 |--①-|
②口①② |②-③-|
①口口③
口口口口

口④⑦口
口口口⑦
口⑤⑥口 |④-⑤⑥|
⑤口⑥④ |--⑦-|
32
口③③③ |①---|
①口口口 |--②③|
口口口口
②②②①

⑤口口口
⑤⑤⑤④
口④④④ |---④|
口口口口 |--⑤-|
33
口口口① |--①-|
口口口口 |②-③-|
①口②口
口③③②

口④口口
④⑤口口
口⑤口口 |④-⑤⑥|
⑥⑦⑦口 |--⑦-|
34
口口口口 |①-②-|
①④③② |③-④-|
②③①④
口口口口

⑤口⑤口
口口口口
口口⑦口 |⑤--⑥|
⑧⑥⑨⑥ |-⑦⑧⑨|
35
②①②口 |①-②-|
口④③④ |③-④-|
口口⑥⑤ |⑤--⑥|
⑦⑦⑥⑤ |--⑦-|
36
⑤②①② |--①-|
⑦口①⑥ |②-③-|
⑤③口⑦ |④-⑤⑥|
④③④⑥ |--⑦-|
37
⑦④③⑦ |--①-|
③⑧⑧④ |②-③-|
⑤①②⑤ |④-⑤⑥|
⑥②①⑥ |-⑦⑧-|
38
口口口口 |①---|
①口口① |----|
口①①口 |----|
口①①口 |----|


不确定度: 0

最終更新:2013年03月23日 16:58