キラキラ☆
Mizca

ADVANCED

Level: 6
BPM: 134
Notes: 384

1
口口口口 |----|
①口口口 |----|
②口口口 |----|
口口口口 |①-②-|
2
口口⑤口 |①-②-|
口②口③ |③-④-|
口口④口 |⑤-⑥-|
①⑥⑦⑧ |⑦-⑧-|
3
口③④② |----|
①口口口 |--①-|
口口口口 |--②-|
口口口口 |③-④-|
4
口口口口 |----|
口口口口 |--①-|
①口口口 |----|
②口口口 |--②-|
5
口②口口 |①-②-|
③⑤口① |③-④-|
口口口⑥ |----|
口口④口 |⑤-⑥-|
6
口⑤口口 |①-②-|
③口②口 |③-④-|
口④口口 |⑤-⑥-|
⑧⑦⑥① |⑦-⑧-|
7
②④③口 |----|
口口口① |--①-|
口口口口 |--②-|
口口口口 |③-④-|
8
口口口口 |----|
口口口① |--①-|
②口口口 |----|
口口口口 |--②-|
9
口口①口 |①-②-|
⑤口②口 |③-④-|
⑥口口④ |----|
口③口口 |⑤-⑥-|
10
⑥⑧⑤⑦ |①-②-|
口②口③ |③-④-|
口口④口 |⑤-⑥-|
①口口口 |⑦-⑧-|
11
口④⑤口 |①---|
③口①口 |--②-|
口②口② |--③-|
口口口口 |④-⑤-|
12
口⑤⑥口 |①---|
口④⑦① |②-③-|
口口③口 |④-⑤-|
口口②口 |⑥-⑦-|
13
口口口口 |①-②-|
口⑤口口 |③-④-|
④①口⑥ |----|
③②口口 |⑤-⑥-|
14
口⑤口口 |①-②-|
③口②口 |③-④-|
⑥④口口 |⑤-⑥-|
口⑦⑧① |⑦-⑧-|
15
口③④⑤ |①---|
②口②口 |--②-|
口口口① |--③-|
口口口口 |④-⑤-|
16
口⑤口⑦ |①---|
④①⑥① |②-③-|
口口③② |④-⑤-|
口口口口 |⑥-⑦-|
17
⑧口①口 |①-②-|
口②口⑦ |③-④-|
⑥口③口 |⑤-⑥-|
口④口⑤ |⑦-⑧-|
18
口口①① |①---|
②②口口 |--②-|
口口口口 |--③-|
口③④⑤ |④-⑤-|
19
口③④② |----|
口口口口 |--①-|
①口口口 |--②-|
口口口口 |③-④-|
20
口口口口 |----|
①口口口 |--①-|
口口口口 |----|
口②口口 |--②-|
21
口②口口 |①-②-|
口口口口 |③-④-|
③口口①
口口④口

⑤口口⑥
口口口口
口口⑨⑩ |⑤-⑥-|
⑦⑧口口 |⑦⑧⑨⑩|
22
口口口口 |--①-|
口③②① |②-③-|
④⑤⑥口 |--④-|
口口口口 |⑤-⑥-|
23
口③④② |----|
口口口口 |--①-|
①口口口 |--②-|
口口口口 |③-④-|
24
口口口口 |----|
①口口口 |--①-|
口口口口 |----|
口口②口 |--②-|
25
口口②口 |①-②-|
口口口口 |③-④-|
①口口③ |----|
口④口口 |----|
26
①③口口 |①-②-|
⑤⑦口口 |③-④-|
口口②④ |⑤-⑥-|
口口⑥⑧ |⑦-⑧-|
27
口口②④ |①-②-|
口口⑥⑧ |③-④-|
①③口口 |⑤-⑥-|
⑤⑦口口 |⑦-⑧-|
28
⑤③口口 |①-②-|
①⑦口口 |③-④-|
口口⑧④ |⑤-⑥-|
口口②⑥ |⑦-⑧-|
29
口口③④ |①-②-|
⑤口②① |③-④-|
①②口⑤ |--⑤-|
④③口口 |----|
30
口口⑦⑤ |①-②-|
口口③① |③-④-|
⑧⑥口口 |⑤-⑥-|
④②口口 |⑦-⑧-|
31
④②口口 |①-②-|
⑧⑥口口 |③-④-|
口口③① |⑤-⑥-|
口口⑦⑤ |⑦-⑧-|
32
口口③⑤ |①-②-|
口口⑦① |③-④-|
④⑧口口 |⑤-⑥-|
⑥②口口 |⑦-⑧-|
33
④③口口 |①-②-|
①②口口 |③-④-|
口口②①
口口③④

口口口口
口口⑦⑤
⑤口⑥口 |--⑤-|
口口口口 |⑥-⑦-|
34
口口①口 |①---|
口②口口 |②-③-|
③口口口 |----|
口④口口 |④---|
35
⑤口口③ |①---|
口④②口 |----|
口口口口 |②-③-|
口口①口 |④-⑤-|
36
口①①口 |①---|
②口口② |②---|
口③④口 |③-④-|
口口口口 |----|
37
口口口口 |①-②-|
口①②口 |③-④-|
⑥⑦⑧③ |⑤-⑥-|
口⑤④口 |⑦-⑧-|
38
口④③⑤ |①-②-|
②⑥⑥① |③-④-|
口口口口 |⑤---|
口口口口 |⑥---|
39
①口口口 |----|
②口⑤口 |①-②-|
③口⑥口 |③-④-|
④口口口 |⑤-⑥-|
40
②口口② |①---|
口③④口 |--②-|
口口口口 |----|
口①①口 |--③④|
41
口⑥⑥口 |①②-③|
⑦口口口 |④⑤-⑥|
⑧①②口 |----|
③⑤口④ |⑦-⑧-|
42
⑥⑧⑤⑦ |①-②-|
口②口③ |③-④-|
口口④口 |⑤-⑥-|
①口口口 |⑦-⑧-|
43
口④⑤口 |①---|
③口①口 |--②-|
口②口② |--③-|
口口口口 |④-⑤-|
44
口⑤⑥口 |①---|
口④⑦① |②-③-|
口口③口 |④-⑤-|
口口②口 |⑥-⑦-|
45
口口口口 |①-②-|
口⑤口口 |③-④-|
④①口⑥ |----|
③②口口 |⑤-⑥-|
46
口⑤口口 |①-②-|
③口②口 |③-④-|
⑥④口口 |⑤-⑥-|
口⑦⑧① |⑦-⑧-|
47
口③④⑤ |①---|
②口②口 |--②-|
口口口① |--③-|
口口口口 |④-⑤-|
48
口⑤口⑦ |①---|
④①⑥① |②-③-|
口口③② |④-⑤-|
口口口口 |⑥-⑦-|
49
⑧口①口 |①-②-|
口②口⑦ |③-④-|
⑥口③口 |⑤-⑥-|
口④口⑤ |⑦-⑧-|
50
口口①① |①---|
②②口口 |--②-|
口口口口 |--③-|
口③④⑤ |④-⑤-|
51
口③④② |----|
口口口口 |--①-|
①口口口 |--②-|
口口口口 |③-④-|
52
口口口口 |----|
①口口口 |--①-|
口口口口 |----|
口②口口 |--②-|
53
口②口口 |①-②-|
口口口口 |③-④-|
③口口①
口口④口

⑤口口⑥
口口口口
口口⑨⑩ |⑤-⑥-|
⑦⑧口口 |⑦⑧⑨⑩|
54
口口口口 |--①-|
口③②① |②-③-|
④⑤⑥口 |--④-|
口口口口 |⑤-⑥-|
55
口③④② |----|
口口口口 |--①-|
①口口口 |--②-|
口口口口 |③-④-|
56
口口口口 |----|
①口口口 |--①-|
口口口口 |----|
口口②口 |--②-|
57
口口②口 |①-②-|
口口口口 |③-④-|
①口口③
口④口口

口⑤⑨口
口⑩⑥口
口⑦口口 |--⑤⑥|
口口⑧口 |⑦⑧⑨⑩|
58
口口口口 |①-②-|
⑦口口② |③-④-|
⑥口①③ |--⑤-|
⑤口口④ |⑥-⑦-|
59
③④口② |----|
口口口口 |--①-|
口①①口 |--②-|
口口口口 |③-④-|
60
口口口口 |----|
口①①口 |--①-|
②口口口 |----|
口口口口 |--②-|
61
口口口口 |①-②-|
口口口口 |③-④-|
口口口① |----|
④③②口 |----|
62
口口口口 |①-②-|
②口口口 |③-④-|
口③①口 |----|
口口④口 |----|


不确定度: 0

最終更新:2013年03月23日 17:21