キラキラ☆
Mizca

EXTREME

Level: 8
BPM: 134
Notes: 530

1
口口①口 |----|
口口口口 |----|
口口②口 |----|
口口口口 |①-②-|
2
口③④口 |①-②-|
②口②口 |③-④-|
④③口口
口口①口

⑤口口⑧
口口⑧⑦
口口⑤口 |⑤-⑥-|
口⑥口口 |⑦-⑧-|
3
④口口口 |----|
②④口口 |--①-|
口口口① |--②-|
③口①口 |③-④-|
4
口口口口 |----|
口口口口 |--①-|
口①口口 |----|
口②①口 |--②-|
5
口①①口 |①-②-|
⑤口口口 |③-④-|
④④口② |----|
口⑥③口 |⑤-⑥-|
6
口口②④ |①-②-|
口③口③ |③-④-|
口④②口
口口①口

⑧⑤口口
⑦⑧口口
口口口⑤ |⑤-⑥-|
口口⑥口 |⑦-⑧-|
7
口口口④ |----|
口口④② |--①-|
①口口口 |--②-|
口①口③ |③-④-|
8
①口口② |----|
②③口口 |--①-|
口口口口 |----|
口口①口 |--②③|
9
口口①口 |①②③④|
口口⑤③ |⑤-⑥-|
①②口⑥
③④口口

⑧口口口
口口口口
⑨口口口 |⑦---|
口口⑦⑦ |⑧-⑨-|
10
口⑤③④ |①-②-|
⑦②⑥② |③-④-|
口④③⑤ |⑤-⑥-|
①⑦⑧⑥ |⑦-⑧-|
11
①⑤口① |①---|
④②②口 |--②-|
③口口口 |--③-|
口口口口 |④-⑤-|
12
⑦口①口 |①---|
口口口② |②-③-|
口口口③ |④-⑤-|
⑥⑤④口 |⑥-⑦-|
13
口口口① |①-②-|
口口口口 |③-④-|
口口口口
口④③②

口口口口
口口口⑤
口口口口 |----|
口口⑥口 |⑤-⑥-|
14
④③口口 |①-②-|
②口②口 |③-④-|
口③④口
口①口口

口口⑤口
口⑥口⑦
⑤口口口 |⑤-⑥-|
⑥⑧⑦口 |⑦-⑧-|
15
①口口① |①---|
口②②⑤ |--②-|
④口口口 |--③-|
口口口③ |④-⑤-|
16
④②口⑤ |①---|
①①①口 |②-③-|
⑦②口口 |④-⑤-|
③口③⑥ |⑥-⑦-|
17
口⑤①口 |①-②-|
④口口⑥ |③-④-|
口口口② |⑤-⑥-|
⑧③口⑦ |⑦-⑧-|
18
口口口口 |①---|
口②①口 |--②-|
口①②口
口口口口

口口口口
口口⑤⑤
口口口④ |--③-|
口③口口 |④-⑤-|
19
④口口口 |----|
②④口口 |--①-|
口口①口 |--②-|
③口①口 |③-④-|
20
口口口口 |----|
口口口口 |--①-|
口口口① |----|
口②①口 |--②-|
21
口①①口 |①-②-|
⑤⑦⑧⑥ |③-④-|
④⑨⑩② |⑤-⑥-|
④口③口 |⑦⑧⑨⑩|
22
口口口口 |--①-|
①口⑥⑥ |②-③-|
口口口⑤ |--④-|
④②③③ |⑤-⑥-|
23
④口口口 |----|
②④口口 |--①-|
口口①口 |--②-|
③口①口 |③-④-|
24
口口口口 |----|
口口口口 |--①-|
口①口口 |----|
口①②口 |--②-|
25
口①①口 |①-②-|
口⑤⑥⑦ |③-④-|
②口④④ |----|
口③口口 |⑤⑥⑦-|
26
④③⑭⑬ |①②③④|
⑧⑦⑩⑨ |⑤⑥⑦⑧|
⑯⑮②① |⑨⑩⑪⑫|
⑫⑪⑥⑤ |⑬⑭⑮⑯|
27
①②⑪⑫ |①②③④|
⑤⑥⑮⑯ |⑤⑥⑦⑧|
⑬⑭⑦⑧ |⑨⑩⑪⑫|
⑨⑩③④ |⑬⑭⑮⑯|
28
⑤①⑪口 |①②③④|
②⑥⑮⑫ |⑤⑥⑦⑧|
⑨⑭⑦③ |⑨⑩⑪⑫|
⑬⑩④⑧ |⑬⑭⑮-|
29
①③④① |①-②-|
⑤②口口 |③-④-|
口口③口 |--⑤-|
口④②⑤ |----|
30
⑯⑮⑥⑤ |①②③④|
⑫⑪②① |⑤⑥⑦⑧|
④③⑩⑨ |⑨⑩⑪⑫|
⑧⑦⑭⑬ |⑬⑭⑮⑯|
31
⑬⑭⑦⑧ |①②③④|
⑨⑩③④ |⑤⑥⑦⑧|
①②⑪⑫ |⑨⑩⑪⑫|
⑤⑥⑮⑯ |⑬⑭⑮⑯|
32
⑬⑩③⑧ |①②③④|
⑨⑭⑦④ |⑤⑥⑦⑧|
①⑥⑮⑫ |⑨⑩⑪⑫|
⑤②⑪口 |⑬⑭⑮-|
33
口④③口 |①-②-|
口口②口 |③-④-|
口③口口
①②④①

口口口⑤
口口口口
⑤口口⑦ |--⑤-|
口⑥口口 |⑥-⑦-|
34
①口口口 |①---|
口②④口 |②-③-|
口⑤③口 |--④-|
口口口口 |⑤---|
35
口③④口 |①---|
②口口⑤ |----|
口口口口 |②-③-|
①口口① |④-⑤-|
36
口口口口 |①---|
口②口口 |②--③|
口口①口 |④-⑤-|
⑤口③④ |----|
37
①口口② |①②-③|
口③④口 |④-⑤⑥|
⑤⑥⑦⑩ |⑦-⑧-|
⑨口口⑧ |⑨-⑩-|
38
口口口② |①-②-|
①口口⑥ |③-④⑤|
口③口⑥ |----|
口口④⑤ |⑥---|
39
④①口口 |----|
口口口口 |①-②-|
⑤②口口 |③-④-|
⑥③口口 |⑤-⑥-|
40
口②②② |①---|
口①口① |--②-|
口口①口
口口口口

口口口口
口口口口
口口③④ |----|
口口口口 |--③④|
41
口⑥口口 |①②-③|
口③⑥口 |④⑤-⑥|
④口口口
口⑤①②

⑦口口口
口口口口
⑧口口口 |----|
口口口口 |⑦-⑧-|
42
口⑤③④ |①-②-|
⑦②⑥② |③-④-|
口④③⑤ |⑤-⑥-|
①⑦⑧⑥ |⑦-⑧-|
43
①⑤口① |①---|
④②②口 |--②-|
③口口口 |--③-|
口口口口 |④-⑤-|
44
⑦口①口 |①---|
口口口② |②-③-|
口口口③ |④-⑤-|
⑥⑤④口 |⑥-⑦-|
45
口口口① |①-②-|
口口口口 |③-④-|
口口口口
口④③②

口口口口
口口口⑤
口口口口 |----|
口口⑥口 |⑤-⑥-|
46
④③口口 |①-②-|
②口②口 |③-④-|
口③④口
口①口口

口口⑤口
口⑥口⑦
⑤口口口 |⑤-⑥-|
⑥⑧⑦口 |⑦-⑧-|
47
①口口① |①---|
口②②⑤ |--②-|
④口口口 |--③-|
口口口③ |④-⑤-|
48
④②口⑤ |①---|
①①①口 |②-③-|
⑦②口口 |④-⑤-|
③口③⑥ |⑥-⑦-|
49
口⑤①口 |①-②-|
④口口⑥ |③-④-|
口口口② |⑤-⑥-|
⑧③口⑦ |⑦-⑧-|
50
口口口口 |①---|
口②①口 |--②-|
口①②口
口口口口

口口口口
口口⑤⑤
口口口④ |--③-|
口③口口 |④-⑤-|
51
④口口口 |----|
②④口口 |--①-|
口口①口 |--②-|
③口①口 |③-④-|
52
口口口口 |----|
口口口口 |--①-|
口口①口 |----|
口②①口 |--②-|
53
口①①口 |①-②-|
⑤⑦⑧⑥ |③-④-|
④⑨⑩② |⑤-⑥-|
④口③口 |⑦⑧⑨⑩|
54
口口口口 |--①-|
①口⑥⑥ |②-③-|
口口口⑤ |--④-|
④②③③ |⑤-⑥-|
55
④口口口 |----|
②④口口 |--①-|
口口口口 |--②-|
③口①口 |③-④-|
56
口口口口 |----|
口口口口 |--①-|
口①口口 |----|
口①②口 |--②-|
57
⑤①①④ |①-②-|
⑨⑦⑥④ |③-④-|
②口⑩⑧ |--⑤⑥|
口③口口 |⑦⑧⑨⑩|
58
口口口口 |①-②-|
口口口② |③-④-|
④①口口
④口③口

口口⑦⑦
口口口⑥
口口口口 |--⑤-|
口⑤口口 |⑥-⑦-|
59
④④口口 |----|
②口口口 |--①-|
口口①口 |--②-|
③口①口 |③-④-|
60
口口口口 |----|
口口口口 |--①-|
口口口口 |----|
①①②口 |--②-|
61
口①①口 |①-②-|
口口口口 |③-④-|
②口④④ |----|
口③口口 |----|
62
口口口② |①-②-|
口口口口 |③-④-|
口口③口 |----|
④④①① |----|


不确定度: 0

最終更新:2013年03月23日 17:21