Kick It Out
ブンブンサテライツ

ADVANCED

Level: 8
BPM: 143
Notes: 619

1
口口口口 |----|
口口口口 |----|
口口口口 |----|
口口口口 |----|
2
口口口⑤ |①-②-|
⑥口口④ |③---|
③①①口 |④-⑤-|
口②②口 |--⑥-|
3
口口口口 |①-②-|
口③③口 |--③-|
口口口① |----|
②口口口 |----|
4
⑤口口⑦ |①-②-|
⑥口口④ |③---|
口①①口 |④-⑤-|
③②②口 |⑥-⑦-|
5
口口口口 |--①-|
口④口口 |--②-|
口口口口 |--③-|
⑤①②③ |④-⑤-|
6
⑤口口口 |①-②-|
④口口⑥ |③---|
口①①③ |④-⑤-|
口②②口 |--⑥-|
7
口口口口 |①-②-|
口③③口 |--③-|
①口口口 |----|
口口口② |----|
8
⑥口口⑤ |①-②-|
④口口⑦ |③---|
口①①③ |④-⑤-|
口②②口 |⑥-⑦-|
9
⑥②③⑧ |①-②-|
⑤①④⑦ |③-④-|
口口口口 |⑤-⑥-|
口口口口 |⑦-⑧-|
10
⑥⑥⑦⑦ |①-②-|
⑤⑤口口 |③-④-|
口①①④ |⑤-⑥-|
③②②口 |--⑦-|
11
③口口⑥ |--①-|
⑤③⑥② |②-③-|
①⑤②④ |--④-|
口①④口 |⑤-⑥-|
12
⑥⑥⑦口 |①-②-|
⑤⑤口⑦ |③-④-|
①口①④ |⑤-⑥-|
③②口② |--⑦-|
13
⑥口口③ |--①-|
②⑥③⑤ |②-③-|
④②⑤① |--④-|
口④①口 |⑤-⑥-|
14
口⑦⑥⑥ |①-②-|
⑦口⑤⑤ |③-④-|
④①口① |⑤-⑥-|
②口②③ |--⑦-|
15
③口口⑥ |--①-|
⑤③⑥② |②-③-|
①⑤②④ |--④-|
口①④口 |⑤-⑥-|
16
③口口⑥ |--①-|
⑤③⑥② |②-③-|
①⑤②④ |--④-|
口①④口 |⑤-⑥-|
17
③口口⑥ |--①-|
⑤③⑥② |②-③-|
①⑤②④ |--④-|
口①④口 |⑤-⑥-|
18
③④⑤⑥ |①-②-|
口口口⑦ |③-④-|
①口①⑧ |⑤-⑥-|
口②口② |⑦-⑧-|
19
口口口口 |①-②-|
⑥⑦⑧口 |③-④-|
⑤口口口 |⑤-⑥-|
④③②① |⑦-⑧-|
20
⑤口口⑤ |①-②-|
④口口口 |③-④-|
③②①口 |--⑤-|
口口口口 |----|
21
⑥口口⑦ |①-②-|
⑧口①① |③-④-|
②口口③ |⑤-⑥-|
④口口⑤ |⑦-⑧-|
22
⑥口口⑦ |①-②-|
⑧⑨口① |③-④-|
②口口③ |⑤-⑥-|
④口口⑤ |⑦-⑧⑨|
23
口⑥⑦口 |①-②-|
口⑧口① |③-④-|
②口③③ |⑤-⑥-|
口④⑤口 |⑦-⑧-|
24
口口口口 |①-②③|
⑥口①⑦ |④⑤⑥⑦|
④口口⑤
②口口③

⑧⑩⑪⑨
口⑫⑬口
口⑭⑮口 |⑧⑨⑩⑪|
口口口口 |⑫⑬⑭⑮|
25
口口④口 |①-②-|
口口口③ |③-④-|
口口口口
口①口②

⑤口口口
口口口口
⑥口口口 |⑤-⑥-|
口⑦口⑧ |⑦-⑧-|
26
③口②口 |①-②-|
口⑧⑦① |③-④-|
④口⑥口 |⑤-⑥-|
口⑤口口 |⑦-⑧-|
27
⑥口⑤④ |①-②-|
口口口口 |③---|
口①口③ |④-⑤-|
口口②口 |-⑥--|
28
口口⑤口 |①--②|
口口口④ |--③-|
①口口口 |-④--|
口②口③ |⑤---|
29
口①口口 |①②③-|
口口②口 |④-⑤-|
口③口口
⑤口口④

⑥口口⑥
口口⑦⑦
口口口口 |--⑥-|
口口口口 |--⑦-|
30
⑤口口⑥ |①-②-|
⑦口⑨⑧ |③-④-|
①口口② |⑤-⑥-|
③口口④ |⑦-⑧⑨|
31
口⑤⑥口 |①-②-|
口⑦⑧口 |③-④-|
①口口② |⑤-⑥-|
③③④口 |⑦-⑧-|
32
口口口口 |①---|
①口口① |----|
①②②① |②---|
②口口② |----|
33
口①②口 |①-②-|
③③口④ |③-④-|
⑤口口⑥ |⑤-⑥-|
⑦口⑧⑧ |⑦-⑧-|
34
口①②口 |①-②-|
口③④口 |③-④-|
口⑤⑥口 |⑤-⑥-|
口⑦⑧⑨ |⑦-⑧⑨|
35
口①②口 |①-②-|
③③④口 |③-④-|
⑤口口⑥ |⑤-⑥-|
⑦口口⑧ |⑦-⑧-|
36
①口口② |①-②-|
③口口④ |③-④-|
⑤口口⑥ |⑤-⑥-|
⑦口口⑧ |⑦-⑧-|
37
口口口⑤ |①-②-|
⑥口口④ |③---|
③①①口 |④-⑤-|
口②②口 |--⑥-|
38
口口口口 |①-②-|
口③③口 |--③-|
口口口① |----|
②口口口 |----|
39
⑤口口⑦ |①-②-|
⑥口口④ |③---|
口①①口 |④-⑤-|
③②②口 |⑥-⑦-|
40
口口口口 |--①-|
口④口口 |--②-|
口口口口 |--③-|
⑤①②③ |④-⑤-|
41
⑤口口口 |①-②-|
④口口⑥ |③---|
口①①③ |④-⑤-|
口②②口 |--⑥-|
42
口口口口 |①-②-|
口③③口 |--③-|
①口口口 |----|
口口口② |----|
43
⑥口口⑤ |①-②-|
④口口⑦ |③---|
口①①③ |④-⑤-|
口②②口 |⑥-⑦-|
44
口③③口 |----|
口②②口 |①---|
口①①口 |②---|
口口口口 |③---|
45
⑥⑥⑦⑦ |①-②-|
⑤⑤口口 |③-④-|
口①①④ |⑤-⑥-|
③②②口 |--⑦-|
46
③口口⑥ |--①-|
⑤③⑥② |②-③-|
①⑤②④ |--④-|
口①④口 |⑤-⑥-|
47
⑥⑥⑦口 |①-②-|
⑤⑤口⑦ |③-④-|
①口①④ |⑤-⑥-|
③②口② |--⑦-|
48
⑥口口③ |--①-|
②⑥③⑤ |②-③-|
④②⑤① |--④-|
口④①口 |⑤-⑥-|
49
口⑦⑥⑥ |①-②-|
⑦口⑤⑤ |③-④-|
④①口① |⑤-⑥-|
②口②③ |--⑦-|
50
③口口⑥ |--①-|
⑤③⑥② |②-③-|
①⑤②④ |--④-|
口①④口 |⑤-⑥-|
51
③口口⑥ |--①-|
⑤③⑥② |②-③-|
①⑤②④ |--④-|
口①④口 |⑤-⑥-|
52
③④④口 |--①-|
口③口② |②-③-|
①口②口 |--④-|
口①口口 |----|
53
⑤口口⑥ |①-②-|
⑦口口⑧ |③-④-|
①①口② |⑤-⑥-|
③口口④ |⑦-⑧-|
54
⑤口口⑥ |①-②-|
⑦口⑨⑧ |③-④-|
①口口② |⑤-⑥-|
③口口④ |⑦-⑧⑨|
55
口⑤⑥口 |①-②-|
口⑦⑧口 |③-④-|
①①②口 |⑤-⑥-|
口③④口 |⑦-⑧-|
56
⑦⑨⑩⑧ |--①②|
⑤⑪⑫⑥ |③④⑤⑥|
③⑬⑭④ |⑦⑧⑨⑩|
①口口② |⑪⑫⑬⑭|
57
口口④口 |①-②-|
口口口③ |③-④-|
口口口口
口①口②

⑤口口口
口口口口
⑥口口口 |⑤-⑥-|
口⑦口⑧ |⑦-⑧-|
58
③口②口 |①-②-|
口口口① |③-④-|
口④口口
口口口口

口⑨⑧口
口⑦⑥口
口口⑤口 |⑤-⑥-|
口口口口 |⑦-⑧⑨|
59
口口口④ |①-②-|
③口④① |③-④-|
口③口②
口口②口

⑦口口口
口⑦口⑥
⑤口⑥口 |--⑤-|
口⑤口口 |⑥-⑦-|
60
口口口② |--①-|
①口②口 |--②-|
口①口口 |----|
口口口口 |----|
61
口口④口 |①-②-|
口口口③ |③-④-|
口口口口
口①口②

⑤口口口
口口口口
⑥口口口 |⑤-⑥-|
口⑦口⑧ |⑦-⑧-|
62
③口②口 |①-②-|
口④口① |③-④-|
口口口口
口口口口

口口口口
口口口⑦
口⑤⑥口 |⑤-⑥-|
口口口口 |⑦---|
63
⑥口口③ |--①-|
②⑥③⑤ |②-③-|
④②⑤① |--④-|
口④①口 |⑤-⑥-|
64
口③③② |--①-|
①口②口 |-②--|
口①口口 |--③-|
口口口口 |----|
65
①口口② |①-②-|
③③④口 |③-④-|
口⑤⑥口 |⑤-⑥-|
口⑦⑧⑧ |⑦-⑧-|
66
①口口② |①-②-|
③口口④ |③-④-|
⑤口口⑥ |⑤-⑥-|
⑦口口⑧ |⑦-⑧-|
67
①②③口 |①-②③|
⑭④⑤⑮ |④⑤⑥⑦|
⑫⑥⑦⑬ |⑧⑨⑩⑪|
⑩⑧⑨⑪ |⑫⑬⑭⑮|
68
①③④② |①②③④|
⑮⑤⑥⑯ |⑤⑥⑦⑧|
⑬⑦⑧⑭ |⑨⑩⑪⑫|
⑪⑨⑩⑫ |⑬⑭⑮⑯|
69
口①①口 |①---|
口口口口 |----|
口口口口 |----|
口口口口 |----|


不确定度: 0

最終更新:2013年03月23日 15:36