勝って泣こうゼッ!
T-Pistonz+KMC

ADVANCED

Level: 6
BPM: 136
Notes: 513

BPM: 136.01
1
口口口口 |----|
口口口口 |----|
口口口口 |----|
口口口口 |----|
2
⑥口⑤⑥ |①---|
口④口口 |②-③-|
口口③口 |④-⑤-|
①②口① |--⑥-|
3
⑤⑥①口 |----|
口②口口 |①-②-|
口口③口 |③-④-|
口④口口 |--⑤⑥|
4
口口①口 |①-②-|
口③口② |③-④⑤|
⑥⑤④口 |⑥-⑦-|
口口⑦口 |----|
5
口口口口 |①-②-|
④口③口 |③-④-|
⑥口⑦⑤ |⑤-⑥-|
⑧②口① |⑦-⑧-|

BPM: 146
6
口口口口 |①-②③|
②③④口 |④-⑤-|
口口口⑤
口口口①

BPM: 131
口⑥口⑦
口口口口
口口口口 |⑥-⑦-|
口口⑨⑧ |--⑧⑨|

BPM: 135.11
7
⑥口口⑥ |①-②-|
②口口⑤ |③-④-|
④口口③ |⑤---|
口①口口 |⑥---|

BPM: 136.01
8
口口口口 |----|
①口②③ |①-②③|
④口口⑤ |--④-|
⑥口口口 |⑤-⑥-|
9
⑤④⑥⑦ |①-②-|
口口③口 |③-④-|
口②口口 |--⑤-|
口口①口 |⑥⑦--|
10
口口口口 |----|
⑥口口口 |①-②③|
①口口⑤ |--④-|
④口②③ |⑤-⑥-|
11
⑦⑥口口 |①-②-|
口口⑤口 |--③-|
口④①口 |④-⑤-|
口②③口 |⑥⑦--|
12
口口口口 |----|
①口②③ |①-②③|
④口口⑤ |--④-|
⑥口口口 |⑤-⑥-|
13
⑤④⑥⑦ |①-②-|
口口③口 |③-④-|
口②口口 |--⑤-|
口口①口 |⑥⑦--|
14
口口口口 |----|
口口口口 |①-②③|
①口口口
口口②③

口口口口
口口口口
⑥口口⑤ |--④-|
④口口口 |⑤-⑥-|
15
口③②① |①②③-|
④⑤⑥口 |④⑤⑥-|
口口口口
口口口口

⑧口口⑧
口口口口
⑦口口⑦ |⑦--⑧|
口口口口 |----|
16
口①①口 |①---|
⑤口口口 |②-③④|
②口③④ |--⑤-|
口⑥⑥口 |--⑥-|
17
口口口口 |----|
口④④① |①-②③|
③②口口 |--④-|
口口口口 |----|
18
①②④③ |-①②-|
口⑩⑪口 |③④-⑤|
⑤⑧⑨⑤ |--⑥⑦|
口⑥⑦口 |⑧⑨⑩⑪|
19
①口口① |①---②-|
②口口② |--③---|
③口⑥③ |④---|
④⑤口④ |⑤-⑥-|
20
口口口② |①-②-|
③①口④ |③④⑤⑥|
⑤口口⑥
口口口口

口口⑩口
口⑨口口
口口⑧口 |⑦-⑧-|
口⑦口口 |⑨-⑩-|
21
③口口口 |①--②|
②口口口 |--③-|
①口口口
口口口口

口口口口
⑩⑨⑧⑦
口④⑤口 |-④⑤⑥|
口⑥口口 |⑦⑧⑨⑩|
22
②口①③ |①-②③|
口口口⑧ |-④⑤-|
④⑥⑥⑤ |⑥---|
口⑦口口 |⑦--⑧|
23
⑩⑪口⑨ |①-②③|
口⑧①口 |④⑤⑥⑦|
④⑥⑦⑤ |⑧-⑨-|
②口口③ |--⑩⑪|
24
口口①口 |①--②|
⑤⑥⑥⑤ |-③④-|
④③口② |⑤---|
口口口口 |⑥---|
25
③①②④ |①②③④|
口口口⑩ |-⑤⑥⑦|
⑨⑤⑥口 |⑧---|
口⑦口⑧ |⑨-⑩-|
26
①②②口 |①---|
口⑦⑥⑤ |②---|
口④③口 |③-④-|
口口口口 |⑤⑥⑦-|
27
④口口④ |①---|
③口口③ |②---|
②口口② |③---|
①口口① |④---|
28
③口口③ |①---|
③②②③ |----|
口①①口 |②---|
口口口口 |--③-|
29
口①①口 |----|
口口口口 |①---|
②②口口 |②---|
口口③③ |③---|
30
⑤⑤⑤⑤ |①---|
③③④④ |②---|
口口②① |③-④-|
①②口口 |--⑤-|
31
口⑤④③ |----|
⑥⑦⑧口 |①-②-|
②口口口 |③④⑤-|
口口口① |⑥⑦⑧-|
32
口口口口 |①---|
口口口口 |----|
口①①口
口口口口

口口口口
④④口口
口口③③ |--②-|
②②口口 |③-④-|
33
⑥口口⑤ |--①-|
④口口③ |②-③-|
②口口⑦ |④-⑤-|
口口口① |⑥-⑦-|
34
口口口口 |①---|
口口口口 |----|
口①①口
口口口口

口口口口
口口④④
③③口口 |--②-|
口口②② |③-④-|
35
⑤口口⑥ |--①-|
③口口④ |②-③-|
⑦口口② |④-⑤-|
①口口口 |⑥-⑦-|
36
口③③口 |----|
口②②口 |①---|
口①①口 |②---|
口口口口 |③---|
37
①口口② |①-②-|
口⑥口口 |--③-|
③口⑤③ |--④-|
口④口口 |⑤-⑥-|
38
④口口⑤ |----|
口口口③ |--①-|
②口口口 |②-③-|
口口口① |④-⑤-|
39
口口口口 |----|
⑥⑤③④ |①---|
②口口口 |②-③④|
口①①口 |-⑤⑥-|
40
口口口口 |①---|
口口口口 |----|
口①①口
口口口口

口口口口
④④口口
口口③③ |--②-|
②②口口 |③-④-|
41
⑥口口⑤ |--①-|
④口口③ |②-③-|
②口口⑦ |④-⑤-|
口口口① |⑥-⑦-|
42
口口口口 |①---|
口口口口 |----|
口①①口
口口口口

口口口口
口口④④
③③口口 |--②-|
口口②② |③-④-|
43
⑤口口⑥ |--①-|
③口口④ |②-③-|
⑦口口② |④-⑤-|
①口口口 |⑥-⑦-|
44
口③③口 |----|
口②②口 |①---|
口①①口 |②---|
口口口口 |③---|
45
①口口口 |①-②-|
口口口② |③-④-|
③口口口
口口口④

口口口口
口口⑦⑦
口⑥⑥口 |--⑤-|
⑤⑤口口 |⑥-⑦-|
46
①口口① |①---|
口口口口 |----|
口口口口 |----|
②口②口 |--②-|
47
⑥⑤⑤⑥ |①-②-|
④口④口 |③-④-|
②③②③ |--⑤-|
口①口① |⑥---|

BPM: 136
48
②③③② |①---|
口②②口 |--②-|
口①口① |----|
口口①口 |--③-|
49
①⑤⑤① |--①-|
④④口口 |②-③-|
口口③③ |④-⑤-|
②②口口 |----|
50
②③③② |①---|
口②②口 |--②-|
①口①口 |----|
口①口口 |--③-|
51
①⑤⑤① |--①-|
口口④④ |②-③-|
③③口口 |④-⑤-|
口口②② |----|
52
②③③② |①---|
口②②口 |--②-|
口①口① |----|
口口①口 |--③-|
53
①⑤⑤① |--①-|
④④口口 |②-③-|
口口③③ |④-⑤-|
②②口口 |----|
54
②口口② |①---|
口②②口 |--②-|
①口①口 |----|
口①口口 |----|
55
⑤⑦⑦⑤ |①-②-|
⑧⑥⑥⑧ |③-④-|
①①③③ |⑤-⑥-|
②②④④ |⑦-⑧-|
56
②③③② |①---|
口②②口 |--②-|
口①口① |----|
口口①口 |--③-|
57
①⑤⑤① |--①-|
口口④④ |②-③-|
③③口口 |④-⑤-|
口口②② |----|
58
②③③② |①---|
口②②口 |--②-|
①口①口 |----|
口①口口 |--③-|
59
④③③④ |--①-|
口口口口 |②---|
口口②② |③-④-|
①①口口 |----|
60
口口口口 |①---|
①②②① |②---|
③口口③ |③-④-|
④口口④ |----|
61
①③③② |①-②-|
口④④口 |--③-|
⑤①②⑤ |--④-|
口口口口 |--⑤-|
62
口口口口 |----|
口口口口 |----|
口口口口 |----|
口口口口 |----|
63
口⑥⑤⑦ |①---|
口④口① |②-③-|
口口口③ |④-⑤-|
②口口口 |⑥-⑦-|
64
口口口口 |----|
口口口口 |----|
口口口口 |----|
口口口口 |----|
65
⑤口口⑤ |①-②-|
③③④④ |③-④-|
口⑤⑤口 |----|
①①②② |⑤---|


不确定度: 0

最終更新:2013年03月23日 20:48