勝って泣こうゼッ!
T-Pistonz+KMC

EXTREME

Level: 7
BPM: 136
Notes: 627

BPM: 136.01
1
口口口口 |----|
口口口口 |----|
口口口口 |----|
口口口口 |----|
2
①口口① |①---|
口口③口 |②-③-|
③口②口
②口口口

⑥口口⑥
⑥⑤口⑥
口④口⑤ |④-⑤-|
口口口④ |--⑥-|
3
口③⑥⑤ |----|
口⑦②口 |①-②-|
口口口④ |③-④-|
口②③① |⑤-⑥⑦|
4
口口口口 |①-②-|
口口④③ |③-④⑤|
②⑤①⑧ |⑥-⑦-|
⑦口⑥② |⑧---|
5
口口口口 |①-②-|
口⑥③⑦ |③-④-|
④②①口 |⑤-⑥-|
口⑧口⑤ |⑦-⑧-|

BPM: 146
6
口口①口 |①-②③|
④口口口 |④-⑤-|
口⑤⑤③
②口口口

BPM: 131
⑥口口⑥
口口口口
⑨口口口 |⑥-⑦-|
口⑦⑦⑧ |--⑧⑨|

BPM: 135.11
7
口口口口 |①-②-|
口④④① |③-④-|
口②②口
口③③口

⑥⑤⑤⑥
口口口口
口⑥⑥口 |⑤---|
口口口口 |⑥---|

BPM: 136.01
8
口口口④ |①---|
口口③口 |②-③④|
②口口口
①口口①

口口口口
口口口口
口口⑤口 |--⑤-|
⑦⑥口口 |⑥-⑦-|
9
⑦口①口 |①-②-|
口⑥②口 |③-④-|
口口③⑤ |--⑤-|
口口④口 |⑥⑦--|
10
口口口口 |----|
④口⑤③ |①-②③|
①⑥②口 |--④-|
口口口口 |⑤-⑥-|
11
口口口⑦ |①-②-|
口⑤⑥口 |--③-|
口口④口 |④-⑤-|
②③口① |⑥⑦--|
12
③口口口 |----|
口②口④ |①-②③|
⑤口口① |--④-|
口口口⑥ |⑤-⑥-|
13
口口④⑦ |①-②-|
口③⑥口 |③-④-|
⑤口②口 |--⑤-|
口①口口 |⑥⑦--|
14
③口口口 |----|
口②口④ |①-②③|
口口口① |--④-|
⑤口⑥口 |⑤-⑥-|
15
口口口⑨ |①②③-|
①②③⑦ |④⑤⑥-|
④⑤⑥⑦ |⑦-⑧⑨|
口口口⑧ |----|
16
口⑤⑤口 |①---|
口①①口 |②-③④|
④口口② |--⑤-|
⑥③口⑥ |--⑥-|
17
③口口口 |----|
口②口② |①-②③|
④口①④ |--④-|
口口口口 |----|
18
口口口② |-①②-|
①⑥⑪③ |③④-⑤|
④⑩⑦口 |--⑥⑦|
⑧⑤⑤⑨ |⑧⑨⑩⑪|
19
①口口① |①---②-|
②口口② |--③---|
③口⑥③ |④---|
④⑤口④ |⑤-⑥-|
20
②②口口 |①-②-|
口③④① |③④⑤⑥|
口口口⑥
⑤口口口

⑨口口⑧
口口口⑩
口⑦口口 |⑦-⑧-|
口口口口 |⑨-⑩-|
21
③口口口 |①--②|
②③口口 |--③-|
①②口口
口①口口

口口口口
⑩口口口
⑥⑧⑦⑨ |-④⑤⑥|
④口口⑤ |⑦⑧⑨⑩|
22
⑤⑥⑥③ |①-②③|
口④②① |-④⑤-|
⑦⑦口口 |⑥---|
口口口⑧ |⑦--⑧|
23
⑥口口⑦ |①-②③|
④②口⑤ |④⑤⑥⑦|
口口③口
口①口口

口⑧口口
口口⑩口
口口⑪口 |⑧-⑨-|
⑨口口⑨ |--⑩⑪|
24
④⑥⑥口 |①--②|
⑤③口⑤ |-③④-|
口⑥⑥② |⑤---|
⑤①口⑤ |⑥---|
25
口口口口 |①②③④|
⑤③②⑥ |-⑤⑥⑦|
①口口④
口⑦口口

口口口口
口口⑩口
口⑨口口 |⑧---|
⑧口口⑧ |⑨-⑩-|
26
①②②口 |①---|
口口口口 |②---|
②口口②
口口口口

⑤口口口
口③口④
口口⑥口 |③-④-|
口口口⑦ |⑤⑥⑦-|
27
口③口④ |①---|
①③口④ |②---|
①口③口 |③---|
②②口口 |④---|
28
③口口③ |①---|
口②②口 |----|
①③③① |②---|
①口口① |--③-|
29
口口口口 |----|
①口①口 |①---|
口②口② |②---|
③口③口 |③---|
30
①口口② |①---|
⑤①②⑤ |②---|
口③④口 |③-④-|
③⑤⑤④ |--⑤-|
31
口口口口 |----|
⑥①①③ |①-②-|
④口口⑦ |③④⑤-|
②⑧⑤② |⑥⑦⑧-|
32
①口口① |①---|
口①①口 |----|
口口口口
口口口口

口口口④
口口口③
②③②④ |--②-|
口口口口 |③-④-|
33
⑥⑦③④ |--①-|
⑤①①⑤ |②-③-|
④③⑦⑥ |④-⑤-|
②口口② |⑥-⑦-|
34
④口口口 |①---|
③①①口 |----|
④②③② |--②-|
口口口口 |③-④-|
35
④③⑦⑥ |--①-|
⑤①①⑤ |②-③-|
⑥⑦③④ |④-⑤-|
②口口② |⑥-⑦-|
36
口口口口 |----|
①口口① |①---|
②口②口 |②---|
口③口③ |③---|
37
①口口口 |①-②-|
口③③② |--③-|
口①口口
口口②口

口④口口
口口口⑤
口口口口 |--④-|
⑥⑥口口 |⑤-⑥-|
38
口⑤⑤口 |----|
③口口④ |--①-|
①④③② |②-③-|
口②①口 |④-⑤-|
39
口⑤⑥口 |----|
②口口口 |①---|
口③④口 |②-③④|
①口口① |-⑤⑥-|
40
①口口① |①---|
口①①口 |----|
口口口口
口口口口

口口口④
口口口③
②③②④ |--②-|
口口口口 |③-④-|
41
⑥⑦③④ |--①-|
⑤①①⑤ |②-③-|
④③⑦⑥ |④-⑤-|
②口口② |⑥-⑦-|
42
④口口口 |①---|
③①①口 |----|
④②③② |--②-|
口口口口 |③-④-|
43
④③⑦⑥ |--①-|
⑤①①⑤ |②-③-|
⑥⑦③④ |④-⑤-|
②口口② |⑥-⑦-|
44
⑤口口⑤ |①-②-|
③①②③ |③---|
④口口④ |④---|
口③③口 |⑤---|
45
口口口口 |①-②-|
①口口② |③-④-|
③①②④
口③④口

口口⑤口
口⑥⑤口
⑦⑥口口 |--⑤-|
⑦口口口 |⑥-⑦-|
46
①②口① |①---|
②口口口 |----|
口口口口 |----|
口口口口 |--②-|
47
口口①口 |①-②-|
口②②① |③-④-|
口③③口
口口④口

口口口口
⑤口口⑥
口口口口 |--⑤-|
⑤口口⑥ |⑥---|

BPM: 136
48
口①口① |①---|
口②①② |--②-|
口①②口
口②口口

③口口③
口口口口
口口口口 |----|
口口口口 |--③-|
49
口⑤口⑤ |--①-|
④口口④ |②-③-|
③①①③ |④-⑤-|
②口②口 |----|
50
①口①口 |①---|
②①②口 |--②-|
①②口口
②口口口

③口口③
口口口口
口口口口 |----|
口口口口 |--③-|
51
⑤口⑤口 |--①-|
④口口④ |②-③-|
③①①③ |④-⑤-|
口②口② |----|
52
②①②① |①---|
口②①口 |--②-|
②①口口
口口口口

口③口③
口口口口
口口口口 |----|
口口口口 |--③-|
53
⑤口口⑤ |--①-|
④口④口 |②-③-|
①③①③ |④-⑤-|
②口口② |----|
54
口口口口 |①---|
②①②① |--②-|
口②①口 |----|
②①口口 |----|
55
⑦①⑦① |①-②-|
③⑤③⑤ |③-④-|
②④②④ |⑤-⑥-|
⑧⑥⑧⑥ |⑦-⑧-|
56
口①口① |①---|
口②①② |--②-|
口①②口
口②口口

③口口③
口口口口
口口口口 |----|
口口口口 |--③-|
57
口⑤口⑤ |--①-|
④口④口 |②-③-|
①③①③ |④-⑤-|
②口②口 |----|
58
①口①口 |①---|
②①②口 |--②-|
①②口口
②口口口

③口口③
口口口口
口口口口 |----|
口口口口 |--③-|
59
④口口④ |--①-|
口①口① |②---|
②口②口 |③-④-|
③口口③ |----|
60
口口①口 |①---|
口口②口 |②---|
口③③③ |③-④-|
口口④口 |----|
61
①③①③ |①-②-|
②④②④ |--③-|
口②口口 |--④-|
口⑤⑤口 |--⑤-|
62
①口口① |①---|
口口口口 |----|
口口口口 |----|
口口口口 |----|
63
⑦①①⑦ |①---|
③⑤⑥④ |②-③-|
④⑥⑤③ |④-⑤-|
口②②口 |⑥-⑦-|
64
口口①口 |①-②-|
口口口② |③-④-|
口口③口
口口口④

⑤口口口
口⑥⑦⑨
口⑧口口 |⑤-⑥⑦|
口口口口 |⑧-⑨-|
65
⑤①①⑤ |①-②-|
⑤④④⑤ |③-④-|
③⑤⑤③ |----|
口②②口 |⑤---|


不确定度: 0

最終更新:2013年03月23日 20:48