じょいふる

BASIC

Level: 1
BPM: 159
Notes: 147

1
口口口口 |----|
口口口口 |----|
口口口口 |----|
口口口口 |----|
2
口口口口 |①---|
口口口口 |----|
口口口口 |②---|
口①②口 |----|
3
口口口口 |①---|
口口口口 |----|
口①②口 |②---|
口口口口 |----|
4
口口口口 |①---|
口①②口 |----|
口口口口 |②---|
口口口口 |----|
5
口①②口 |①---|
口口口口 |----|
口口口口 |②---|
口口口口 |----|
6
口口口① |①---|
口口口① |----|
口口口口 |----|
口口口口 |----|
7
①口口口 |①---|
①口口口 |----|
口口口口 |----|
口口口口 |----|
8
口口口① |①---|
口口口① |----|
口口口口 |----|
口口口口 |----|
9
①口口口 |①---|
①口口口 |----|
口口口口 |----|
口口口口 |----|
10
口口口口 |①---|
口口②① |----|
口口口口 |②---|
口口口口 |----|
11
口①口口 |①---|
②口口口 |----|
口口口口 |②---|
口口口口 |----|
12
口口口口 |①---|
口口口口 |----|
①②口口 |②---|
口口口口 |----|
13
口口口口 |①---|
口口口口 |----|
口口口② |②---|
口口①口 |----|
14
口口口口 |①---|
口口②① |----|
口口口口 |②---|
口口口口 |----|
15
口①口口 |①---|
②口口口 |----|
口口口口 |②---|
口口口口 |----|
16
口口口口 |①---|
口口口口 |----|
①②口口 |②---|
口口口口 |----|
17
口口口口 |①---|
口口口口 |----|
口口口② |②---|
口口①口 |----|
18
口口口口 |①---|
口口①① |----|
口口口口 |----|
口口口口 |----|
19
口口口口 |----|
口口口口 |----|
口口口口 |----|
口口口口 |----|
20
口口口口 |①---|
①①口口 |----|
口口口口 |----|
口口口口 |----|
21
口口口口 |----|
口口口口 |----|
口口口口 |----|
口口口口 |----|
22
口口口口 |①---|
口口口口 |----|
口①①口 |----|
口口口口 |----|
23
口口口口 |----|
口口口口 |----|
口口口口 |----|
口口口口 |----|
24
口口口口 |①---|
口口口口 |----|
①口口① |②---|
②口口② |----|
25
口口口口 |①---|
口③③口 |②---|
口②②口 |③---|
口①①口 |----|
26
口①②口 |①---|
口口口口 |----|
口口口口 |②---|
口口口口 |----|
27
口口口口 |①---|
口②①口 |----|
口口口口 |②---|
口口口口 |----|
28
口口口口 |①---|
口口口口 |----|
口①①口 |----|
口口口口 |----|
29
口口口口 |①---|
口口口口 |--②-|
口③②口 |--③-|
口口口① |----|
30
口口口口 |①---|
口口口口 |----|
②口口口 |②---|
①口口口 |----|
31
口口口口 |①---|
①②口口 |----|
口口口口 |②---|
口口口口 |----|
32
口口口口 |①---|
口口①口 |----|
口口①口 |----|
口口口口 |----|
33
口口口口 |①---|
口口口口 |--②-|
口③②口 |--③-|
口口口① |----|
34
口口口口 |①---|
口口口口 |----|
口口口口 |----|
口①①口 |----|
35
口口口口 |①---|
口口口口 |----|
①口口① |----|
口口口口 |----|
36
口口口口 |①---|
口①①口 |----|
口口口口 |----|
口口口口 |----|
37
①口口① |①---|
口口口口 |----|
口口口口 |----|
口口口口 |----|
38
口①①口 |①---|
口口口口 |----|
口口口口 |----|
口口口口 |----|
39
口口口口 |①---|
①口口① |----|
口口口口 |----|
口口口口 |----|
40
口口口口 |①---|
口口口口 |----|
口①①口 |②---|
口②②口 |----|
41
口口口口 |①---|
③口口③ |②---|
②口口② |③---|
①口口① |----|
42
口②①口 |①---|
口口口口 |----|
口口口口 |②---|
口口口口 |----|
43
口口口口 |①---|
口①②口 |----|
口口口口 |②---|
口口口口 |----|
44
口口口口 |①---|
口口口口 |----|
口①①口 |----|
口口口口 |----|
45
口口口口 |①---|
口口口口 |--②-|
口②③口 |--③-|
①口口口 |----|
46
口口口口 |①---|
口口口口 |----|
口口口② |②---|
口口口① |----|
47
口口口口 |①---|
口口②① |----|
口口口口 |②---|
口口口口 |----|
48
口口口口 |①---|
口①口口 |----|
口①口口 |----|
口口口口 |----|
49
口口口口 |①---|
口口口口 |--②-|
口②③口 |--③-|
①口口口 |----|
50
口口口口 |①---|
③口口口 |②---|
②口口口 |③---|
①口口口 |----|
51
口①口口 |①---|
口口②口 |----|
口口口③ |②---|
口口口口 |③---|
52
口口口口 |①---|
口口口口 |②---|
口口口口 |③---|
口③②① |----|
53
口口③口 |①---|
口②口口 |----|
①口口口 |②---|
口口口口 |③---|
54
口口口① |①---|
口口口② |②---|
口口口③ |③---|
口口口口 |----|
55
口口口口 |①---|
③口口口 |----|
口②口口 |②---|
口口①口 |③---|
56
口①口口 |①---|
口口②口 |----|
口口口口 |②---|
口口口口 |----|
57
口口口口 |①---|
口口口口 |----|
口①口口 |----|
口②②口 |②---|
58
口口口口 |①---|
口口口口 |----|
②口口口 |②---|
①口口口 |----|
59
口口口口 |①---|
口②口口 |----|
口①口口 |②---|
口口口口 |----|
60
口口口口 |①---|
口口①口 |----|
口口②口 |②---|
口口口口 |----|
61
口口口口 |①---|
口口口口 |----|
口口口① |②---|
口口口② |----|
62
口口口口 |①---|
口口口口 |----|
口口口② |②---|
口口①口 |----|
63
口口②口 |①---|
口口口① |----|
口口口口 |②---|
口口口口 |----|
64
口①口口 |①---|
②口口口 |----|
口口口口 |②---|
口口口口 |----|
65
口口口口 |①---|
口口口口 |----|
①口口口 |②---|
口②口口 |----|
66
口口口口 |①---|
口口口口 |----|
口①①口 |----|
口口口口 |----|


不确定度: 0

最終更新:2012年11月15日 17:48