じょいふる

ADVANCED

Level: 6
BPM: 159
Notes: 395

1
口口口口 |----|
口口口口 |----|
口口口口 |----|
口口口口 |----|
2
①口口① |①---|
口②③口 |②-③-|
口④⑤口 |④-⑤-|
口⑥⑦口 |⑥-⑦-|
3
⑦口口⑧ |①-②-|
⑤口口⑥ |③-④-|
③口口④ |⑤-⑥-|
①口口② |⑦-⑧-|
4
口①④口 |①-②-|
口②⑤口 |③-④-|
口③⑥口 |⑤-⑥-|
口⑦⑧口 |⑦-⑧-|
5
④口口① |①-②-|
⑤口口② |③-④-|
⑥口口③ |⑤-⑥-|
⑧口口⑦ |⑦-⑧-|
6
口②②口 |①-②-|
口①①口 |----|
口口口口 |----|
口口口口 |----|
7
口口口口 |----|
口口口口 |----|
①口口① |--①-|
口口口口 |----|
8
口②②口 |①-②-|
口①①口 |----|
口口口口 |----|
口口口口 |----|
9
口口口口 |----|
口口口口 |----|
口口口口 |----|
口口口口 |----|
10
②口口④ |①-②-|
①口口③ |----|
口口口口 |③-④-|
口口口口 |----|
11
口④④口 |①-②-|
口③③口 |--③-|
口⑤口口 |--④-|
口①②口 |--⑤-|
12
②口口④ |①-②-|
①口口③ |----|
口口口口 |③-④-|
口口口口 |----|
13
口①②口 |①-②-|
口④④口 |--③-|
口⑤口口 |--④-|
口③③口 |--⑤-|
14
②口口④ |①-②-|
①口口③ |----|
口口口口 |③-④-|
口口口口 |----|
15
口④④口 |①-②-|
口③③口 |--③-|
口⑤口口 |--④-|
口①②口 |--⑤-|
16
②口口④ |①-②-|
①口口③ |----|
口口口口 |③-④-|
口口口口 |----|
17
口①②口 |①-②-|
口④④口 |--③-|
口⑤口口 |--④-|
口③③口 |--⑤-|
18
口口口口 |①---|
①口口① |②-③-|
口口②口
口口③口

口口口⑦
口口口⑥
口口口⑤ |④-⑤-|
口口口④ |⑥-⑦-|
19
口口①口 |①-②-|
口口②口 |③-④-|
口口③口 |----|
口口④口 |----|
20
②②口口 |----|
③口口口 |①---|
口③口口 |②---|
①①口口 |③---|
21
④口口口 |①-②-|
口③口口 |③-④-|
②口口口 |----|
口①口口 |----|
22
口口口口 |----|
⑤④③口 |①-②-|
口③②① |③---|
口口口口 |④-⑤-|
23
①②③④ |①-②-|
口口口口 |③-④-|
口口口口 |--⑤-|
口⑦⑥⑤ |⑥-⑦-|
24
口口口口 |①---|
③口口② |--②-|
③口口② |③---|
①口口④ |--④-|
25
③口口口 |①---|
口③⑥② |②---|
口①②⑤ |③-④-|
口①口④ |⑤-⑥-|
26
④①④① |①---|
口口口口 |②-③-|
口③⑥口 |④---|
口⑤②口 |⑤-⑥-|
27
口①口① |①---|
口口口口 |--②-|
口⑥口⑤ |③-④-|
口④②③ |⑤-⑥-|
28
①口①口 |--①-|
口口口口 |----|
口口②③ |②-③-|
口口口口 |----|
29
④口④口 |①-②-|
③口③口 |--③-|
口②口口 |--④-|
口①口口 |----|
30
④①④① |①---|
口口口口 |②-③-|
口③⑥口 |④---|
口⑤②口 |⑤-⑥-|
31
口①口① |①---|
口口口② |--②-|
口口口③ |③-④-|
口⑥⑤④ |⑤-⑥-|
32
①口①口 |--①-|
口口口口 |----|
口口②③ |②-③-|
口口口口 |----|
33
④口④口 |①-②-|
③口③口 |--③-|
口②口口 |--④-|
口①口口 |----|
34
口口口口 |----|
口口口口 |①-②-|
口口①② |③-④-|
⑥⑤④③ |⑤-⑥-|
35
口口口口 |①-②-|
口口口口 |③-④-|
①②③④ |----|
口口口口 |----|
36
口口口口 |--①-|
口口口口 |②-③-|
①④⑤口 |④-⑤-|
②③⑥⑦ |⑥-⑦-|
37
①口①口 |①---|
口①②③ |②-③-|
口口口口 |----|
口口口口 |----|
38
口口口口 |--①-|
口②③口 |②-③-|
①口口口
口口口口

口口口口
口口口口
⑦口口④ |④-⑤-|
口⑥⑤口 |⑥-⑦-|
39
口口口口 |①-②-|
①口口④ |③-④-|
口②③⑤ |--⑤-|
口⑦⑥口 |⑥-⑦-|
40
②口口③ |①---|
②口口③ |--②-|
①口口口 |③---|
口口口④ |--④-|
41
③口口口 |①---|
口③⑥② |②---|
口①②⑤ |③-④-|
口①口④ |⑤-⑥-|
42
④①④① |①---|
口口口口 |②-③-|
口③⑥口 |④---|
口⑤②口 |⑤-⑥-|
43
口①口① |①---|
口口口口 |--②-|
口⑥口⑤ |③-④-|
口④②③ |⑤-⑥-|
44
①口①口 |--①-|
口口口口 |----|
口口②③ |②-③-|
口口口口 |----|
45
④口④口 |①-②-|
③口③口 |--③-|
口②口口 |--④-|
口①口口 |----|
46
④①④① |①---|
口口口口 |②-③-|
口③⑥口 |④---|
口⑤②口 |⑤-⑥-|
47
口①口① |①---|
口口口② |--②-|
口口口③ |③-④-|
口⑥⑤④ |⑤-⑥-|
48
①口①口 |--①-|
口口口口 |----|
口口②③ |②-③-|
口口口口 |----|
49
④口④口 |①-②-|
③口③口 |--③-|
口②口口 |--④-|
口①口口 |----|
50
口口口口 |①-②-|
口④口口 |③-④-|
口③口口
口口②①

口口口口
口口口⑥
口口⑤⑦ |⑤-⑥-|
口口⑧口 |⑦-⑧-|
51
口口口口 |--①-|
③口④口 |--②-|
口③口④ |③---|
①口口② |④---|
52
口口口口 |①-②-|
④口口口 |③-④-|
③口口口
①②口口

口口口口
口口⑥口
口⑤⑦口 |⑤-⑥-|
口⑧口口 |⑦-⑧-|
53
口口口口 |--①-|
口③口④ |--②-|
③口④口 |③---|
①口口② |④---|
54
④口口② |①-②-|
⑦③①⑦ |③-④-|
口⑤⑤口 |⑤---|
⑥口口⑥ |⑥-⑦-|
55
④口口④ |--①-|
口①①口 |--②-|
③②②③ |③---|
口口口口 |④---|
56
口口口口 |①--②|
①②③口 |--③-|
口口口口 |④--⑤|
口⑥⑤④ |--⑥-|
57
口口口口 |①---|
口口口口 |----|
口①①口
口口口口

口口口口
口口口②
②口②口 |----|
口②口口 |②---|
58
①②口口 |①-②-|
口口口口 |----|
口口口口 |③-④-|
口口④③ |----|
59
口④口④ |①-②-|
①②口口 |--③-|
口③口③ |--④-|
口口口口 |----|
60
口口口口 |①---|
口口口① |----|
①口①口 |②-③-|
口①③② |----|
61
口③口③ |①-②-|
①②口口 |--③-|
口④口④ |--④-|
口口口口 |----|
62
口口口口 |①---|
口口口① |----|
①口①口 |②-③-|
口①③② |----|
63
口④口④ |①-②-|
①②口口 |--③-|
口③口③ |--④-|
口口口口 |----|
64
口口口口 |①---|
口口口① |----|
①口①口 |②-③-|
口①③② |----|
65
口③口③ |①-②-|
①②口口 |--③-|
口④口④ |--④-|
口口口口 |----|
66
口口口口 |①---|
口口口① |----|
①口①口 |----|
口①口口 |----|


不确定度: 0

最終更新:2012年11月15日 17:48