じょいふる

EXTREME

Level: 8
BPM: 159
Notes: 564

1
口口口口 |----|
口口口口 |----|
口口口口 |----|
口口口口 |----|
2
②口口口 |①---|
④①①⑦ |②-③-|
⑥①①⑤ |④-⑤-|
口口口③ |⑥-⑦-|
3
口口④② |①-②-|
口⑦⑥口 |③-④-|
口⑤⑧口 |⑤-⑥-|
①③口口 |⑦-⑧-|
4
①②③口 |①-②-|
⑦口口口 |③-④-|
口口口⑧ |⑤-⑥-|
口⑥⑤④ |⑦-⑧-|
5
①②③口 |①-②-|
口⑦口口 |③-④-|
口口⑧口 |⑤-⑥-|
口⑥⑤④ |⑦-⑧-|
6
⑦⑦③③ |①-②-|
⑥口④② |③-④-|
①⑧口⑤ |⑤-⑥-|
口口口口 |⑦-⑧-|
7
口口③③ |①-②-|
口口④② |③-④-|
①⑥⑥⑤ |⑤-⑥-|
口口口口 |----|
8
⑦⑦③③ |①-②-|
⑥口④口 |③-④-|
口⑧口⑤ |⑤-⑥-|
①口口② |⑦-⑧-|
9
⑤⑤③③ |①-②-|
④口口② |③---|
①口口口 |④-⑤-|
口口口口 |----|
10
口口口口 |①-②-|
④④②② |----|
③③①① |③-④-|
口口口口 |----|
11
口口④④ |①-②-|
口口②② |--③-|
口口①① |--④-|
⑤⑤③③ |--⑤-|
12
口口口口 |①-②-|
④④②② |----|
③③①① |③-④-|
口口口口 |----|
13
口口④④ |①-②-|
口口①① |--③-|
口口②② |--④-|
⑤⑤③③ |--⑤-|
14
口口口口 |①-②-|
④④②② |----|
③③①① |③-④-|
口口口口 |----|
15
口口④④ |①-②-|
口口②② |--③-|
口口①① |--④-|
⑤⑤③③ |--⑤-|
16
口口口口 |①-②-|
④④②② |----|
③③①① |③-④-|
口口口口 |----|
17
口口④④ |①-②-|
口口①① |--③-|
口口②② |--④-|
口口③③ |----|
18
口③⑧口 |①-②-|
④⑤⑥⑦ |③-④-|
①口口② |⑤-⑥-|
口口口口 |⑦-⑧-|
19
②口口④ |①-②-|
口口口口 |③-④-|
口口口口 |----|
①口口③ |----|
20
③口口③ |----|
口①①口 |①---|
口口口口 |②---|
②口口② |③---|
21
口口口口 |①-②-|
口口③④ |③-④-|
①②口口 |----|
口口口口 |----|
22
口口口③ |----|
①②口口 |①-②-|
口④⑤③ |③---|
口口口口 |④-⑤-|
23
②口口④ |①-②-|
口口口口 |③-④-|
口口口口
①口口③

口口口口
口口口口
⑤口口口 |--⑤-|
⑦⑥口口 |⑥-⑦-|
24
①①①② |①---|
口①口口 |--②-|
口③③③ |③---|
口④③口 |--④-|
25
口①口② |①---|
①口②口 |②---|
①口②口
口口口口

口⑥③口
口③口口
口③口口 |③-④-|
⑤口口④ |⑤-⑥-|
26
口口口③ |①---|
口口口① |②-③-|
口口口①
口②①口

口⑥口口
口④口口
口④口口 |④---|
④口⑤口 |⑤-⑥-|
27
口口口③ |①---|
口口①口 |②-③-|
口口①口
口①口②

口⑦④口
⑦口口④
⑥口口⑤ |④-⑤-|
口⑥⑤口 |⑥-⑦-|
28
③口口④ |--①-|
口⑤①口 |②---|
口②①口 |③-④-|
口口口口 |⑤---|
29
口口口口 |①-②-|
③口③口 |--③-|
口口口口
①口口②

④口④口
口口口口
口口口口 |--④-|
⑤口口口 |⑤---|
30
口口口③ |①---|
口口口① |②-③-|
口口口①
口②①口

口⑥口口
口④口口
口④口口 |④---|
④口⑤口 |⑤-⑥-|
31
口口口③ |①---|
口口①口 |②-③-|
口口①口
口①口②

口⑦④口
⑦口口④
⑥口口⑤ |④-⑤-|
口⑥⑤口 |⑥-⑦-|
32
③口口④ |--①-|
口⑤①口 |②---|
口②①口 |③-④-|
口口口口 |⑤---|
33
④口④口 |①-②-|
③口③口 |--③-|
口口口口 |--④-|
①口口② |----|
34
口②③口 |①---|
口口口口 |②-③-|
口①①口
口口口口

口口口口
口④⑤口
口⑥⑦口 |④-⑤-|
口口口口 |⑥-⑦-|
35
口口口口 |①-②-|
口⑤⑥口 |③-④-|
口口口口 |⑤-⑥-|
③①②④ |----|
36
口①①口 |①-②-|
②③④⑤ |③-④-|
口口口⑥ |⑤-⑥-|
口口⑧⑦ |⑦-⑧-|
37
①①①① |①---|
口④⑤口 |②-③-|
口①①口 |--④-|
③②口口 |⑤---|
38
口①①口 |①-②-|
口口口口 |③-④-|
②口口口
口③④口

口口口口
口⑦⑥口
⑧口口⑤ |⑤-⑥-|
口口口口 |⑦-⑧-|
39
口口口口 |①-②-|
①口口④ |③-④-|
⑤②③口 |--⑤-|
⑦⑥口口 |⑥-⑦-|
40
①①①② |①---|
口①口口 |--②-|
口③③③ |③---|
口④③口 |--④-|
41
口①口② |①---|
①口②口 |②---|
①口②口
口口口口

口⑥③口
口③口口
口③口口 |③-④-|
⑤口口④ |⑤-⑥-|
42
口口口③ |①---|
口口口① |②-③-|
口口口①
口②①口

口⑥口口
口④口口
口④口口 |④---|
④口⑤口 |⑤-⑥-|
43
口口口③ |①---|
口口①口 |②-③-|
口口①口
口①口②

口⑦④口
⑦口口④
⑥口口⑤ |④-⑤-|
口⑥⑤口 |⑥-⑦-|
44
③口口④ |--①-|
口②①口 |②---|
口⑤①口 |③-④-|
口口口口 |⑤---|
45
口口口口 |①-②-|
③口③口 |--③-|
口口口口
①口口②

④口④口
口口口口
口口口口 |--④-|
⑤口口口 |⑤---|
46
口口口③ |①---|
口口口① |②-③-|
口口口①
口②①口

口⑥口口
口④口口
口④口口 |④---|
④口⑤口 |⑤-⑥-|
47
口口口③ |①---|
口口①口 |②-③-|
口口①口
口①口②

口⑦④口
⑦口口④
⑥口口⑤ |④-⑤-|
口⑥⑤口 |⑥-⑦-|
48
③口口④ |--①-|
口②①口 |②---|
口⑤①口 |③-④-|
口口口口 |⑤---|
49
④口④口 |①-②-|
③口③口 |--③-|
口口口口 |--④-|
①口口② |----|
50
⑧⑦口口 |①-②-|
口口⑥⑤ |③-④-|
口口③④ |⑤-⑥-|
①②口口 |⑦-⑧-|
51
口口口② |--①-|
②④④口 |--②-|
①③③口 |③---|
口口口① |④---|
52
口口⑦⑧ |①-②-|
⑤⑥口口 |③-④-|
④③口口 |⑤-⑥-|
口口②① |⑦-⑧-|
53
②口口口 |--①-|
口④④② |--②-|
口③③① |③---|
①口口口 |④---|
54
⑦⑥⑥⑦ |①-②-|
④⑤⑤④ |③-④-|
口③③口 |⑤---|
①②②① |⑥-⑦-|
55
口口口④ |--①-|
①③④② |--②-|
①③④② |③---|
③口口口 |④---|
56
①口⑤④ |①--②|
②口⑥③ |--③-|
③⑥口② |④--⑤|
④⑤口① |--⑥-|
57
口口口口 |①---|
口①口口 |----|
口口①口
口口口口

口②②②
口口②口
②口②口 |----|
口②口口 |②---|
58
⑥口口口 |①-②-|
①口口② |③---|
④口口⑤ |④-⑤-|
口口口③ |⑥---|
59
口口口口 |①-②-|
口①口口 |③-④-|
口③②口
④口口④

口口口口
⑤⑥口⑤
口口口口 |--⑤-|
口口口口 |⑥---|
60
⑤①①① |①---|
③口①④ |②---|
①口①口 |③-④-|
口①口② |⑤---|
61
口口口口 |①-②-|
口①口口 |③-④-|
口③②口
④口口④

口口口口
⑤⑥口⑤
口口口口 |--⑤-|
口口口口 |⑥---|
62
⑤①①① |①---|
③口①④ |②---|
①口①口 |③-④-|
口①口② |⑤---|
63
口口口口 |①-②-|
口①口口 |③-④-|
口③②口
④口口④

口口口口
⑤⑥口⑤
口口口口 |--⑤-|
口口口口 |⑥---|
64
⑤①①① |①---|
③口①④ |②---|
①口①口 |③-④-|
口①口② |⑤---|
65
口口口口 |①-②-|
口①口口 |③-④-|
口③②口
④口口④

口口口口
⑤⑥口⑤
口口口口 |--⑤-|
口口口口 |⑥---|
66
口①①① |①---|
口口①口 |----|
①口①口 |----|
口①口口 |----|


不确定度: 0

最終更新:2012年11月15日 17:47