ギタ・ドラ・jubeat大夏祭りのテーマ
DNM盛り上げ隊

EXTREME

Level: 10
BPM: 157
Notes: 667

1
口口口口 |----|
口口口口 |----|
口口口口 |----|
口口口口 |----|
2
④①口② |①--②|
口口③口 |③-④-|
⑧⑤口⑥ |⑤--⑥|
口口⑦口 |⑦-⑧-|
3
④①口② |①--②|
口⑩③口 |③-④-|
⑨⑤口⑦ |⑤⑥-⑦|
⑥口⑧口 |⑧-⑨⑩|
4
④①口② |①--②|
口口③口 |③-④-|
⑧⑤口⑥ |⑤--⑥|
口口⑦口 |⑦-⑧-|
5
④①口② |①--②|
口口③口 |③-④-|
口口口口
口口口口

口⑫⑪口
⑥⑤口口
⑩⑨口口 |⑤⑥⑦⑧|
⑧⑦口口 |⑨⑩⑪⑫|
6
口口口④ |①②-③|
口口③② |④-⑤-|
口口①口
口⑤⑤②

口⑨⑨口
⑦口口口
⑧⑥口⑪ |⑥⑦⑧-|
⑦口口⑩ |⑨-⑩⑪|
7
②口口② |①-②-|
③①①③ |③---|
口口口口 |----|
口口口口 |----|
8
⑨口口口 |①-②③|
口口⑥③ |④-⑤⑥|
①⑤②口 |⑦--⑧|
⑧口⑦④ |--⑨-|
9
口⑥③④ |--①-|
口⑤口口 |②-③-|
①②口口 |④-⑤⑥|
口口口口 |----|
10
口口口④ |①②-③|
口口③② |④-⑤-|
口口①口
口⑤⑤②

口⑨⑨口
⑦口口口
⑧⑥口⑪ |⑥⑦⑧-|
⑦口口⑩ |⑨-⑩⑪|
11
②口口② |①-②-|
③①①③ |③---|
口口口口
口口口口

口④⑥口
口⑤⑦口
⑧口口口 |--④⑤|
口⑨口口 |⑥⑦⑧⑨|
12
⑤⑨⑨⑧ |①②--|
④⑦⑥② |③④--|
⑨③①⑨ |⑤⑥⑦⑧|
④口口② |--⑨-|
13
⑤⑥口⑤ |①-②-|
⑤④⑦⑤ |③-④-|
⑧②③⑧ |⑤-⑥⑦|
⑧口①⑧ |⑧---|
14
口⑥⑦口 |①-②-|
④②④口 |③-④-|
⑦⑥③⑦ |⑤-⑥-|
口口①⑤ |⑦---|
15
①口口口 |①---|
口口⑤口 |--②-|
③④①口 |--③-|
②③口口 |④-⑤-|
16
④③②① |①-②-|
⑤④口② |③-④-|
⑥⑤④③ |⑤-⑥-|
⑦⑥⑤④ |⑦---|
17
④①口② |①--②|
口口③口 |③-④-|
⑧⑤口⑥ |⑤--⑥|
口口⑦口 |⑦-⑧-|
18
⑥⑧①⑤ |①-②-|
④口③⑦ |③-④-|
口⑥口口 |⑤-⑥-|
②④口口 |⑦-⑧-|
19
口口口口 |----|
①①①口 |--①-|
②③②口 |--②-|
口口④口 |③-④-|
20
⑤①口③ |①-②③|
口口④口 |④-⑤-|
⑨⑥口⑦ |⑥--⑦|
②口⑧② |⑧-⑨-|
21
④①口② |①--②|
口口③口 |③-④-|
⑧⑤口⑥ |⑤--⑥|
口口⑦口 |⑦-⑧-|
22
口⑧口口 |①-②-|
口⑥口口 |③-④-|
口④③⑤ |⑤-⑥-|
口②⑦① |⑦-⑧-|
23
②口口口 |①-②-|
④口口口 |③-④-|
⑥口③⑤ |⑤-⑥-|
⑧口⑦① |⑦-⑧-|
24
⑦①口口 |--①-|
⑤③口② |②-③-|
口口口口 |④-⑤-|
口⑥口④ |⑥-⑦-|
25
口口②① |①-②-|
④口③② |③-④-|
口口口口
口口④口

⑥口口⑦
口口口口
口口口口 |⑤---|
⑤口口口 |⑥-⑦-|
26
④口口⑤ |①---|
口①①口 |--②-|
①口口① |③---|
口口②③ |④-⑤-|
27
④口口⑤ |①---|
口口口口 |--②-|
①口口① |③---|
口口②③ |④-⑤-|
28
④口①⑤ |①---|
口①口① |--②-|
口口①口 |③---|
口①②③ |④-⑤-|
29
口口口口 |①---|
口口①① |--②-|
口口①①
口①②口

④④④口
口④口口
口④⑥⑦ |③-④-|
⑤口口③ |⑤⑥⑦-|
30
口口⑤② |①--②|
①⑥③⑨ |③-④-|
口⑦⑩⑧ |⑤⑥⑦-|
口口④口 |⑧-⑨⑩|
31
③口口② |①-②-|
口口口口 |③---|
①口⑤口 |----|
口口④口 |--④⑤|
32
③口口② |①-②-|
⑤①口④ |③-④-|
口口口⑥ |⑤-⑥-|
⑦口口⑦ |--⑦-|
33
①③⑥① |--①-|
②④口② |---②----|
口⑤口口 |③④⑤-|
口口口口 |⑥---|
34
口口口④ |①②-③|
口口③② |④-⑤-|
口口①口
口⑤⑤②

口⑨⑨口
⑦口口口
⑧⑥口⑪ |⑥⑦⑧-|
⑦口口⑩ |⑨-⑩⑪|
35
②口口② |①-②-|
③①①③ |③---|
④口口⑦ |④-⑤-|
口⑤⑥口 |⑥-⑦-|
36
⑤⑨⑨⑧ |①②--|
④⑦⑥② |③④--|
⑨③①⑨ |⑤⑥⑦⑧|
④口口② |--⑨-|
37
⑤⑥口⑤ |①-②-|
⑤④⑦⑤ |③-④-|
⑧②③⑧ |⑤-⑥⑦|
⑧口①⑧ |⑧---|
38
口⑥⑦口 |①-②-|
④②④口 |③-④-|
⑦⑥③⑦ |⑤-⑥-|
口口①⑤ |⑦---|
39
①口口口 |①---|
口口口口 |--②-|
口口①口
②口口口

口口口口
口口口口
口口⑤④ |--③-|
口口④③ |④-⑤-|
40
②③④⑤ |①-②-|
③①⑤⑥ |③-④-|
④⑤⑥⑦ |⑤-⑥-|
⑤⑥⑦⑧ |⑦-⑧-|
41
④①口② |①--②|
口口③口 |③-④-|
⑧⑤口⑥ |⑤--⑥|
口口⑦口 |⑦-⑧-|
42
④④①⑦ |①-②-|
⑧⑧③⑤ |③-④-|
⑥⑥口口 |⑤-⑥-|
②②口口 |⑦-⑧-|
43
口②④口 |①---|
④口口② |②---|
口口口口 |③---|
口①③口 |④---|
44
④①口② |①--②|
口口③口 |③-④-|
⑧⑤口⑥ |⑤--⑥|
口口⑦口 |⑦-⑧-|
45
④①口② |①--②|
口口③口 |③-④-|
⑧⑤口⑥ |⑤--⑥|
口口⑦口 |⑦-⑧-|
46
②⑧口口 |①-②-|
⑧②口口 |③-④-|
⑥④③⑤ |⑤-⑥-|
④⑥⑦① |⑦-⑧-|
47
①口①口 |①---|
口②口② |②---|
③口③口 |③---|
口④口④ |④---|
48
②④③⑤ |①-②-|
②④⑦① |③-④-|
⑥⑧口口 |⑤-⑥-|
⑥⑧口口 |⑦-⑧-|
49
⑦③①口 |①-②-|
②口⑤口 |③-④-|
口口口④ |⑤---|
⑥口口口 |⑥-⑦-|
50
⑤①①③ |①---|
口①口口 |--②-|
口口①口 |③---|
④①①② |④-⑤-|
51
⑤口口③ |①---|
口①口口 |--②-|
口①①口 |③---|
④口①② |④-⑤-|
52
⑤口①③ |①---|
口口①口 |--②-|
口①①口 |③---|
④①①② |④-⑤-|
53
口口口口 |①---|
口口口口 |--②-|
口口①口
口①①②

⑥口⑥③
口④口④
口口口口 |③-④-|
⑤口⑤口 |⑤-⑥-|
54
口口口口 |①---|
口口口口 |----|
①①①① |----|
口口口口 |----|
55
⑥⑦口口 |--①②|
⑤⑧口口 |③-④-|
④③口口 |⑤-⑥-|
口①②口 |⑦-⑧-|
56
⑤⑨⑨⑧ |①②--|
④⑦⑥② |③④--|
⑨③①⑨ |⑤⑥⑦⑧|
④口口② |--⑨-|
57
⑤⑥口⑤ |①-②-|
⑤④⑦⑤ |③-④-|
⑧②③⑧ |⑤-⑥⑦|
⑧口①⑧ |⑧---|
58
⑥口口④ |①---|
③⑤③③ |②---|
⑦②②⑦ |③④-⑤|
口①①口 |⑥-⑦-|
59
⑧①①口 |①---|
③⑥⑦口 |②-③④|
口④口口 |⑤-⑥-|
②⑤⑤② |⑦-⑧-|
60
口口⑤口 |①-②③|
口口口② |④-⑤-|
①口③①
口口④口

⑧⑥口口
口⑥⑦⑨
⑧口口⑨ |⑥-⑦-|
口口口⑦ |⑧-⑨-|
61
⑧⑤⑦⑥ |①-②③|
②⑤⑥口 |④-⑤-|
口③口口 |⑥---|
①④①口 |⑦-⑧-|
62
口口口④ |①-②③|
⑦⑨③⑥ |④-⑤-|
①⑧②⑤ |⑥-⑦-|
⑦口①⑥ |--⑧⑨|
63
①⑨①⑥ |①-②-|
口口⑤口 |③-④⑤|
②⑧④⑦ |⑥-⑦-|
口③口口 |⑧-⑨-|
64
③⑥③⑥ |①-②-|
④①④① |③---|
口口口口 |④-⑤-|
②⑤②⑤ |⑥---|
65
③⑤③⑧ |①-②-|
口①⑥① |③---|
口⑦口口 |④-⑤⑥|
②口②④ |⑦-⑧-|
66
③⑥③⑥ |①-②-|
④①④① |③---|
口口口口 |④-⑤-|
②⑤②⑤ |⑥---|
67
②口②口 |①---|
口①口口 |--②-|
②口②口 |----|
口口口口 |----|
68
口①口口 |--①-|
①口①口 |----|
口①口口 |----|
口口口口 |----|

不确定度: 0

最終更新:2012年11月06日 22:25