An imitation's superstar
VOLA & THE ORIENTAL MACHINE

EXTREME

Level: 8
BPM: 180
Notes: 633

1
口口口口 |----|
口口口口 |----|
口口口口 |----|
口口口口 |----|
2
①②③④ |①-②-|
口口口口 |③-④-|
口口口口
口口口口

⑧口口口
⑦口口口
⑥口口口 |⑤-⑥-|
⑤口口口 |⑦-⑧-|
3
口口口口 |①-②-|
口口口口 |③-④-|
口口口口
④③②①

口口口⑤
口口口⑥
口口口⑦ |⑤-⑥-|
口口口⑧ |⑦-⑧-|
4
①②③④ |①-②-|
口口口口 |③-④-|
口口口口
口口口口

⑧口口口
⑦口口口
⑥口口口 |⑤-⑥-|
⑤口口口 |⑦-⑧-|
5
口口口口 |①-②-|
口口口口 |③-④-|
口口口口
④③②①

口口口⑤
口口口⑥
口口口⑦ |⑤-⑥-|
口口口⑧ |⑦-⑧-|
6
①②③④ |①-②-|
口口口口 |③-④-|
口③口口
口口口口

⑧口口口
⑦口口口
⑥口⑦口 |⑤-⑥-|
⑤口口口 |⑦-⑧-|
7
口口口口 |①-②-|
口口③口 |③-④-|
口口口口
④③②①

口口口⑤
口⑦口⑥
口口口⑦ |⑤-⑥-|
口口口⑧ |⑦-⑧-|
8
①②③④ |①-②-|
口⑦口⑧ |③-④-|
口③口口 |⑤-⑥-|
⑤口⑥口 |⑦-⑧-|
9
①⑨②⑩ |①②③④|
③⑪④⑫ |⑤⑥⑦⑧|
⑤⑬⑥⑭ |⑨⑩⑪⑫|
⑦⑮⑧⑯ |⑬⑭⑮⑯|
10
口口①口 |--①-|
②口⑦口 |②-③-|
⑥口③口 |④-⑤-|
④口⑤口 |⑥-⑦-|
11
口①口① |----|
②口②口 |①---|
口①口① |----|
②口②口 |②---|
12
口④口⑤ |--①-|
口⑥口③ |②-③-|
口②口⑦ |④-⑤-|
口口口① |⑥-⑦-|
13
①口①口 |----|
口②口② |①---|
①口①口 |----|
口②口② |②---|
14
⑤口④口 |--①-|
③口⑥口 |②-③-|
⑦口②口 |④-⑤-|
①口口口 |⑥-⑦-|
15
②口②口 |----|
口①口① |①---|
②口②口 |----|
口①口① |②---|
16
口口口④ |--①-|
⑤③口口 |②-③-|
口口⑥② |④-⑤-|
⑦①口口 |⑥-⑦-|
17
①①⑤⑤ |①-②-|
⑥⑥②② |③-④-|
③③⑦⑦ |⑤-⑥-|
⑧⑧④④ |⑦-⑧-|
18
②口③口 |----|
口⑤口口 |①-②-|
①口④口 |③-④-|
口口口口 |--⑤-|
19
口①口① |----|
②口②口 |①---|
口①口① |----|
②口②口 |②---|
20
口⑤口⑥ |①-②-|
口③口② |③-④-|
口口口口 |⑤-⑥-|
⑦④口① |--⑦-|
21
①口①口 |----|
口②口② |①---|
①口①口 |----|
口②口② |②---|
22
⑥口⑥口 |--①-|
①⑤①⑤ |②-③-|
②③②③ |④-⑤-|
④口④口 |--⑥-|
23
口①口① |----|
②口②口 |①---|
口①口① |----|
②口②口 |②---|
24
②⑤口口 |①-②-|
口口口口 |--③-|
①④口③ |④-⑤-|
口口口⑥ |--⑥-|
25
①口②口 |①-②-|
⑦③⑧④ |③-④-|
⑤口⑥口 |⑤-⑥-|
口口口口 |⑦-⑧-|
26
④②②④ |①-②-|
口口口口 |----|
③③③③ |③-④-|
①①①① |----|
27
口②②口 |①-②-|
口③④口 |--③-|
口④③口 |--④-|
①①①① |----|
28
②④④② |①-②-|
⑥⑧⑧⑥ |③-④-|
⑤⑦⑦⑤ |⑤-⑥-|
①③③① |⑦-⑧-|
29
①④④① |①---|
口口口口 |②-③-|
口④④口 |--④-|
③②③② |----|
30
①口口② |①---|
①口口② |②---|
⑤④④⑤ |③-④-|
⑥③③⑥ |⑤-⑥-|
31
①②③口 |①-②-|
口口口口 |③---|
口④④口 |④---|
⑤口口⑤ |⑤---|
32
①②③④ |①-②-|
口口口口 |③-④-|
⑦口⑥⑤ |⑤-⑥-|
口口口口 |--⑦-|
33
口①口口 |①---|
口口③口 |②-③-|
口口口口 |--④-|
口④②口 |----|
34
①口②① |①-②-|
③口⑧口 |③-④-|
⑦口④口 |⑤-⑥-|
⑤口⑥口 |⑦-⑧-|
35
口①口① |----|
②口②口 |①---|
口①口① |----|
②口②口 |②---|
36
口④口⑤ |--①-|
口⑥口③ |②-③-|
口②口⑦ |④-⑤-|
口口口① |⑥-⑦-|
37
①口①口 |----|
口②口② |①---|
①口①口 |----|
口②口② |②---|
38
⑤口④口 |--①-|
③口⑥口 |②-③-|
⑦口②口 |④-⑤-|
①口口口 |⑥-⑦-|
39
②口②口 |----|
口①口① |①---|
②口②口 |----|
口①口① |②---|
40
口口口口 |--①-|
⑤③口口 |②-③-|
口口⑥② |④-⑤-|
⑦①④口 |⑥-⑦-|
41
⑩②⑨① |①②③④|
⑫④⑪③ |⑤⑥⑦⑧|
⑭⑥⑬⑤ |⑨⑩⑪⑫|
⑯⑧⑮⑦ |⑬⑭⑮⑯|
42
⑤①口② |①-②-|
⑥口口④ |③-④-|
口③口⑥ |⑤-⑥-|
口口口⑦ |--⑦-|
43
口口④口 |--①-|
口口③口 |--②-|
口口②口 |--③-|
口口①口 |--④-|
44
①⑧口② |①-②-|
②⑦口④ |③-④-|
③⑥口⑥ |⑤-⑥-|
④⑤口⑧ |⑦-⑧-|
45
口口④口 |--①-|
口口③口 |--②-|
口口②口 |--③-|
口口①口 |--④-|
46
④⑤口① |--①-|
③⑥口③ |②-③-|
②口口⑤ |④-⑤-|
①口口⑦ |⑥-⑦-|
47
④口⑥口 |①-②-|
口口⑤口 |--③-|
口口③口 |④-⑤-|
①口②口 |--⑥-|
48
⑥①口① |--①-|
口②口③ |②-③-|
④口口⑤ |④-⑤-|
⑤口口⑥ |--⑥-|
49
口①口④ |--①-|
口口③口 |--②-|
口口②口 |--③-|
口口①口 |--④-|
50
口②④口 |①-②-|
①口口③ |----|
④口口② |③-④-|
口③①口 |----|
51
口口口口 |①-②-|
口①②口 |③-④-|
口③④口 |⑤-⑥-|
⑤口口⑥ |----|
52
口①③口 |①-②-|
②口口④ |----|
③口口① |③-④-|
口④②口 |----|
53
口口口口 |①-②-|
①②口口 |③-④-|
口③④口 |--⑤-|
⑤口口口 |----|
54
口③③口 |--①-|
②②①① |②-③-|
⑥⑤⑤⑥ |④-⑤-|
⑦④④⑦ |⑥-⑦-|
55
③口口① |①-②-|
口②口口 |③---|
口④④口 |④---|
⑤口口⑤ |⑤---|
56
④⑥⑤⑦ |--①-|
口口②口 |②-③-|
口口口① |④-⑤-|
口口③口 |⑥-⑦-|
57
④④④④ |①---|
①①②② |②---|
①①②② |③---|
③③③③ |④---|
58
口④④口 |----|
口③③口 |①---|
①口口② |②---|
口口口口 |③-④-|
59
口口口① |--①-|
口⑥⑦③ |②-③-|
④口口⑤ |④-⑤-|
②口口口 |⑥-⑦-|
60
①④④① |①---|
③口口③ |②---|
③②②③ |③---|
③②②③ |④---|
61
①口口② |①-②-|
④③③④ |③---|
④⑥⑥④ |④---|
口⑤⑤口 |⑤-⑥-|
62
①⑥⑥① |--①-|
口②②口 |②-③-|
③口口④ |④-⑤-|
口⑤⑤口 |--⑥-|
63
②口口口 |--①-|
④⑦⑦⑤ |②-③-|
⑥口口③ |④-⑤-|
口口口① |⑥-⑦-|
64
口⑤③① |--①-|
⑦口口⑦ |②-③-|
口口口口 |④-⑤-|
②④⑥口 |⑥-⑦-|
65
④④④④ |--①-|
⑥②②⑥ |②-③-|
⑥③③⑥ |④---|
①⑤⑤① |⑤-⑥-|
66
④⑦⑦口 |--①-|
口②⑤口 |②-③-|
口口口口 |④-⑤-|
①⑥口③ |⑥-⑦-|
67
口口口口 |--①-|
①④④② |②-③-|
口③③口 |④-⑤-|
⑤口口⑤ |----|
68
①④④① |①---|
③口口③ |②---|
③②②③ |③---|
③②②③ |④---|
69
⑥⑥⑥⑥ |①-②-|
⑥①②⑥ |③-④-|
⑤③④⑤ |⑤---|
⑤⑤⑤⑤ |⑥---|
70
口⑤⑤口 |--①-|
⑥②①⑥ |②-③-|
⑥口口⑥ |④-⑤-|
口口④③ |--⑥-|
71
①口口口 |----|
口口②口 |①-②-|
口③口口 |③-④-|
口口口④ |----|
72
口④①口 |①----②|
④②口① |----③-|
②口③口 |--④-|
口口口③ |----|


不确定度: 0

最終更新:2013年03月23日 13:44