HOT DOG
THE BAWDIES

EXTREME

Level: 7
BPM: 148
Notes: 505

全程BPM在148附近飄忽不定
1
口口口口 |----|
口口口口 |----|
口口口口 |----|
口口口口 |----|
2
口口口口 |①-②③|
口②③口 |④⑤⑥⑦|
①④⑤①
①⑥⑦①

⑧口口⑨
⑩口口⑪
⑫口口⑬ |⑧⑨⑩⑪|
⑭口口⑮ |⑫⑬⑭⑮|
3
②①①③ |①---|
④①①⑤ |②-③-|
口口口口 |④-⑤-|
口⑥⑥口 |--⑥-|
4
⑦⑦⑧⑧ |①-②-|
⑤口口⑥ |③-④-|
③口口④ |⑤-⑥-|
①口口② |⑦-⑧-|
5
口口口口 |----|
口①②口 |①-②-|
口③④口 |③-④-|
⑤口口⑤ |--⑤-|
6
⑤口口⑥ |--①-|
口①②口 |②-③-|
口③④口 |④-⑤-|
口口口口 |--⑥-|
7
口⑥⑥口 |①---|
口②③口 |②-③-|
①④⑤① |④-⑤-|
口①①口 |--⑥-|
8
⑥口口⑥ |--①-|
口①②口 |②-③-|
口③④口 |④-⑤-|
⑤口口⑤ |--⑥-|
9
⑤口口⑤ |----|
口①②口 |①-②-|
口③④口 |③-④-|
口口口口 |--⑤-|
10
口口⑦口 |--①-|
③⑥口③ |②-③-|
②口⑤② |④-⑤-|
①④口① |⑥-⑦-|
11
②口口② |①---|
③口口④ |②-③-|
③口口④ |--④-|
①口口① |----|
12
口口口口 |----|
③②①口 |--①-|
④⑤口口 |②-③-|
口口口口 |④-⑤-|
13
口③口口 |①---|
③口口② |②---|
口口①② |----|
口口口口 |--③-|
14
口口口口 |--①-|
口口⑤口 |----|
口③④① |②-③-|
口②①口 |④-⑤-|
15
口②③口 |①---|
①口口① |②-③-|
口口口口 |--④-|
④口口④ |----|
16
口口口① |--①-|
③②口口 |--②-|
④⑤⑥口 |③-④-|
口口口口 |⑤-⑥-|
17
口口口口 |--①-|
口口口① |----|
②口口① |----|
口②口口 |--②-|
18
②口①口 |--①-|
②口③① |----|
口③口③ |--②-|
口口口口 |③---|
19
口口口口 |①---|
口口口① |----|
口口①口
口口①口

口②口口
②口口口
口口口③ |--②-|
口口③口 |--③-|
20
口口口口 |----|
⑤口④⑤ |--①-|
口②③口 |②-③-|
口①口口 |④-⑤-|
21
①口③① |--①-|
口口口③ |--②-|
②口口口 |--③-|
口②口口 |----|
22
①口口① |----|
①①①① |----|
①口口① |--①-|
②口口② |--②-|
23
口口口口 |①---|
口口口口 |----|
口①①口
口①①口

②口口②
②②②②
②④④② |②-③-|
③④④③ |--④-|
24
口②口④ |----|
口②口④ |--①-|
①口③口 |②-③-|
⑤口口口 |④-⑤-|
25
口口④口 |①--②|
②口②④ |----|
③①口① |--③-|
口③口口 |--④-|
26
口口口口 |----|
口口口口 |----|
口口口口 |----|
①口口口 |--①-|
27
⑥口口⑦ |①-②-|
④④口⑤ |③-④-|
②口③③ |⑤-⑥-|
口⑧⑧① |⑦-⑧-|
28
口①①口 |--①-|
口口口口 |----|
口口口口 |----|
②口口口 |--②-|
29
⑥口口⑦ |①-②-|
④④口⑤ |③-④-|
②口③③ |⑤-⑥-|
口⑧⑧① |⑦-⑧-|
30
口①①口 |--①-|
口口口口 |----|
口口口口 |----|
②②②② |--②-|
31
⑤口口⑥ |--①-|
③③④④ |②-③-|
①口口② |④-⑤-|
口⑦⑦口 |⑥-⑦-|
32
口①①口 |--①-|
口口口口 |----|
口口口口 |----|
②②②② |--②-|
33
⑤口口⑥ |--①-|
③③④④ |②-③-|
①口口② |④-⑤-|
口⑦⑦口 |⑥-⑦-|
34
③①①③ |--①-|
口②②口 |--②-|
口③③口 |--③-|
②口口② |----|
35
口①①口 |①---|
口②③口 |②---|
②④④③ |③---|
口②③口 |④---|
36
②口口④ |①-②-|
口⑤⑤口 |③-④-|
口⑤⑤口 |⑤---|
①口口③ |----|
37
口⑤⑤口 |①-②-|
③口口④ |③-④-|
①口口② |⑤---|
口口口口 |----|
38
口⑤⑤口 |①-②-|
口口口口 |③-④-|
③⑥口④ |⑤---|
①口口② |--⑥-|
39
④②③④ |①---|
④口口④ |②-③-|
④口①④ |④---|
口口口口 |----|
40
⑤⑥⑥⑤ |①-②-|
口⑤⑤口 |③-④-|
⑤③④⑤ |⑤---|
口①②口 |--⑥-|
41
口口口口 |①-②-|
①口口② |--③-|
④③③口 |----|
③③③③ |--④-|
42
口口口口 |--①-|
口口口口 |----|
口口口① |----|
口口口口 |----|
43
口口④口 |①-②-|
⑦③口口 |③-④-|
⑦口②口 |⑤-⑥-|
⑤①口⑥ |--⑦-|
44
⑤口④⑥ |①-②-|
口③⑧② |③-④-|
口⑦②② |⑤-⑥-|
口①口口 |⑦-⑧-|
45
口⑤⑤口 |①-②-|
②①口口 |③-④-|
③口口口 |--⑤-|
口④④口 |----|
46
口①口口 |----|
①口口口 |--①-|
口口口② |--②-|
口口②口 |----|
47
⑤口④⑥ |①-②-|
⑦③口⑦ |③-④-|
口口②口 |⑤-⑥-|
口①口口 |--⑦-|
48
口口④口 |①-②-|
口③口口 |③-④-|
口口②口
②①口②

⑤口口⑥
口口口口
口口口口 |⑤-⑥-|
口⑦口口 |⑦---|
49
口口口口 |①-②-|
①口口⑤ |③-④-|
②③④⑤ |--⑤-|
口口口口 |----|
50
口③②口 |----|
③口口② |--①-|
①口口③ |--②-|
口①③口 |--③-|
51
口口口口 |----|
口口③④ |----|
①②口口 |①-②-|
口口口口 |③-④-|
52
口口②③ |--①-|
口①口口 |②-③-|
口口⑤⑥ |--④-|
口④口口 |⑤-⑥-|
53
口口②③ |--①-|
口①⑥⑦ |②-③-|
④⑤口口 |④-⑤-|
口口口口 |⑥-⑦-|
54
口口②③ |--①-|
口①口口 |②-③-|
口口⑤⑥ |--④-|
口④口口 |⑤-⑥-|
55
①②口口 |--①-|
口口③口 |②-③-|
口④口⑤ |④---|
口口⑤口 |⑤---|
56
口①②② |①---|
①①②② |②---|
③④⑤⑥ |③-④-|
③口⑤口 |⑤-⑥-|
57
口口口口 |①-②-|
口②口④ |③-④-|
口口口口 |⑤---|
⑤①⑥③ |⑥---|
58
口口口口 |①-②-|
①②③④ |③-④-|
⑤⑥⑦⑧ |⑤-⑥-|
⑤①⑦③ |⑦-⑧-|
59
口口口口 |①-②-|
口②口② |③---|
口口口口 |④---|
④①⑤③ |⑤---|
60
口口口口 |①-②-|
⑤⑥⑦⑧ |③-④-|
①②③④ |⑤-⑥-|
⑤①⑦③ |⑦-⑧-|
61
口口口口 |①-②-|
口口口口 |③---|
口②口② |④---|
④①⑤③ |⑤---|
62
口口口口 |①-②-|
①②③④ |③-④-|
⑤⑥⑦⑧ |⑤-⑥-|
⑤①⑦③ |⑦-⑧-|
63
口④④口 |①-②-|
口②口② |③-④-|
口⑥⑥口 |⑤-⑥-|
⑤①⑦③ |⑦---|
64
口口口口 |①---|
口口口口 |②---|
口口口口 |③---|
③①④② |④---|
65
口口口口 |①---|
口口口口 |②---|
口口口口 |③---|
③①④② |④---|
66
口口口口 |①---|
①①①① |----|
①①①① |----|
口口口口 |----|


不确定度: 0

最終更新:2013年03月23日 20:29