HALLUCINATION
UZUMAKI

ADVANCED

Level: 7
BPM: 112
Notes: 499

1
口口口口 |----|
口口口口 |----|
口口口口 |----|
口口口口
2
口口口④ |①②--|
①口口② |③--④|
⑤③口口 |--⑤-|
口口口口
3
口口口口 |-①--|
口②口口 |②--③|
口口③口 |--④-|
④口口①
4
④口口口 |①②--|
②口口① |③--④|
口口③⑤ |--⑤-|
口口口口
5
口口口口 |-①--|
口口②口 |②--③|
口③口口 |--④-|
①口口④
6
口口口① |①-②-|
口②口⑦ |③④-⑤|
口④③⑥ |-⑥-⑦|
口口口⑤
7
①口口口 |①-②-|
⑦口②口 |③④-⑤|
⑥③④口 |-⑥-⑦|
⑤口口口
8
口口口① |①-②-|
口②口⑦ |③④-⑤|
口④③⑥ |-⑥-⑦|
口口口⑤
9
①口口口 |①-②-|
⑦口②口 |③④-⑤|
⑥③④口 |-⑥-⑦|
⑤口口口
10
⑦口口⑦ |①-②-|
⑥①①⑥ |③④-⑤|
⑤②②⑤ |-⑥-⑦|
④④③③
11
⑦口口⑦ |①-②-|
⑥①①⑥ |③④-⑤|
⑤②②⑤ |-⑥-⑦|
③③④④
12
⑦口口⑦ |①-②-|
⑥①①⑥ |③④-⑤|
⑤②②⑤ |-⑥-⑦|
④④③③
13
⑦口口⑦ |①-②-|
⑥①①⑥ |③④-⑤|
⑤②②⑤ |-⑥-⑦|
③③④④
14
口口口口 |①-②-|
口①②口 |③④-⑤|
③口口④
口⑤口口

口口口口
口⑦口口
口口⑥口 |-⑥-⑦|
口口口口
15
①①①① |①---|
口口口口 |----|
口口口口 |----|
口口口口
16
口口口口 |①②-③|
②口口① |④-⑤⑥|
③⑦⑦④ |--⑦-|
⑥口口⑤
17
口口口口 |①②-③|
①⑦⑦② |④-⑤⑥|
④口口③ |--⑦-|
⑤口口⑥
18
②口口② |①---|
口口口口 |---②|
①口口① |----|
口口口口
19
口口口口 |①②-③|
口②①口 |④-⑤⑥|
口③④口 |--⑦-|
⑦⑥⑤⑦
20
口口口口 |①②-③|
口①②口 |④-⑤⑥|
口④③口 |--⑦-|
⑦⑤⑥⑦
21
口口口口 |①②-③|
口②①口 |④-⑤⑥|
口③④口 |--⑦-|
⑦⑥⑤⑦
22
口口口口 |①---|
②口口② |---②|
口①①口 |----|
口口口口
23
①②③口 |①②③-|
口④④口 |④-⑤⑥|
⑥口口⑤ |--⑦-|
口⑦⑦口
24
口口口口 |①②-③|
①口口② |④-⑤⑥|
④口口③ |--⑦-|
⑤⑦⑦⑥
25
口口口口 |①②-③|
②口口① |④-⑤⑥|
③口口④ |--⑦-|
⑥⑦⑦⑤
26
②口口② |①---|
口口口口 |---②|
口①①口 |----|
口口口口
27
口口口口 |①②-③|
口①②口 |④-⑤⑥|
口④③口 |--⑦-|
⑦⑤⑥⑦
28
口口口口 |①②-③|
口②①口 |④-⑤⑥|
口③④口 |--⑦-|
⑦⑥⑤⑦
29
口口口口 |①②-③|
口①②口 |④-⑤⑥|
口④③口 |--⑦-|
⑦⑤⑥⑦
30
②口口② |①---|
口口口口 |---②|
口①①口 |----|
口口口口
31
⑥口口⑥ |--①②|
①口口② |③④--|
⑤口口⑤ |⑤-⑥-|
③口口④
32
⑥口口⑥ |--①②|
口①②口 |③④--|
口⑤⑤口 |⑤-⑥-|
口③④口
33
口①⑤口 |--①②|
口⑥②口 |③④--|
口③⑦口 |⑤⑥⑦⑧|
口⑧④口
34
口口口口 |--①②|
①口口② |③④⑤-|
③④⑤口
口口口口

口口口口
⑧口口口
口口口⑦ |⑥⑦⑧-|
⑥口口口
35
⑤⑥⑦口 |--①-|
口③④口 |②-③④|
口②②口 |⑤⑥⑦-|
口①①口
36
口口口口 |--①②|
口口口口 |③④-⑤|
①⑤⑥② |⑥⑦⑧-|
③⑦⑧④
37
①⑤⑥② |--①②|
③⑦⑧④ |③④-⑤|
口口口口 |⑥⑦⑧-|
口口口口
38
口口口口 |--①-|
口②③口 |--②③|
①④④① |--④-|
口口口口
39
口口口⑧ |①-②-|
口口口⑦ |③④⑤⑥|
口⑤⑥② |⑦-⑧-|
口③④①
40
口①①口 |①---|
口②②口 |②---|
③口口④ |③④-⑤|
⑤口口口
41
口⑥口口 |①-②③|
⑨④⑤口 |④⑤⑥-|
⑦②③⑧ |⑦⑧-⑨|
口口口①
42
口口口口 |①②--|
口①②口 |--③-|
口③口口
口口口口

口口口口
④⑤⑥⑦
口口口口 |④⑤⑥⑦|
口口口口
43
⑦⑧⑨口 |①②③-|
口⑤⑥口 |④-⑤⑥|
②口③① |⑦⑧⑨-|
口④④口
44
口口口口 |--①-|
②口口① |②-③④|
⑤③④⑥ |⑤⑥-⑦|
口⑦⑦口
45
口③③口 |----|
口②②口 |①-②-|
口①①口 |③---|
口口口口
46
口口口口 |①-②-|
口③④⑤ |--③④|
②口口② |⑤---|
①口口①
47
口口⑦口 |①-②-|
口口⑥口 |③④-⑤|
③口⑤④ |-⑥-⑦|
口①②口
48
口口口③ |--①-|
②口口① |-②--|
①口口② |③---|
③口口口
49
⑤⑥⑥④ |--①-|
③口口② |②③-④|
口①①口 |⑤-⑥-|
口口口口
50
③口口口 |--①-|
口①②口 |-②--|
口②①口 |③---|
口口口③
51
口口口口 |--①-|
①③③① |-②--|
口②②口 |③-④-|
口④④口
52
口口口③ |--①-|
②口口① |-②--|
①口口② |③---|
③口口口
53
⑤⑥⑥④ |--①-|
③口口② |②③-④|
口①①口 |⑤-⑥-|
口口口口
54
③口口口 |--①-|
口①②口 |-②--|
口②①口 |③---|
口口口③
55
②口口② |①---|
口②②口 |--②-|
①口口① |----|
口①①口
56
口口口口 |①--②|
口③④口 |-③④-|
②⑤⑤② |--⑤-|
①口口①
57
④口口④ |①--②|
①③③① |--③-|
口口口口 |④---|
②口口②
58
口口口③ |--①-|
④②①口 |-②--|
口①②④ |③-④-|
③口口口
59
口口口口 |①--②|
口③③① |--③-|
①口口口
口②②口

口④④口
口口口口
⑤口口⑤ |④-⑤-|
口口口口
60
口③④口 |--①-|
②口口② |-②-③|
口口口口 |④---|
①口口①
61
口⑤⑤口 |--①-|
①口口① |-②-③|
②口口② |④-⑤-|
口③④口
62
③口口③ |--①-|
口②①口 |-②--|
口①②口 |③---|
口口口口
63
④④④④ |①--②|
③③③③ |--③-|
②②②② |-④--|
①①①①
64
④④④口 |①--②|
口③③③ |--③-|
②②②口 |-④--|
口①①①
65
④④口口 |①--②|
口口③③ |--③-|
②②口口 |-④--|
口口①①
66
口口口口 |①--②|
口口口③ |--③-|
②口口口 |----|
口口口①


不确定度: 0

最終更新:2013年03月23日 20:40