HALLUCINATION
UZUMAKI

EXTREME

Level: 8
BPM: 112
Notes: 588

1
口口口口 |----|
口口口口 |----|
口口口口 |----|
口口口口
2
口口口口 |①②--|
④⑥②① |③--④|
口口口③ |⑤-⑥-|
①③⑤口
3
口口④⑥ |①②--|
③口口口 |③--④|
②口⑤③ |⑤-⑥-|
口口口①
4
口口口口 |①②--|
口口②① |③--④|
③①④③ |⑤-⑥-|
⑤口口⑥
5
口口⑥口 |①②--|
口②口口 |③--④|
③④口口 |⑤-⑥-|
口①③⑤
6
口口口① |①-②-|
口口②⑦ |③④-⑤|
口口④③ |-⑥-⑦|
口⑤口⑥
7
⑥口⑤口 |①-②-|
③④口口 |③④-⑤|
⑦②口口 |-⑥-⑦|
①口口口
8
口口口① |①-②-|
口口②⑦ |③④-⑤|
口口④③ |-⑥-⑦|
口⑤口⑥
9
⑥口⑤口 |①-②-|
③④口口 |③④-⑤|
⑦②口口 |-⑥-⑦|
①口口口
10
⑥口⑤① |①-②-|
③④②⑦ |③④-⑤|
⑦②④③ |-⑥-⑦|
①⑤口⑥
11
⑥口⑤① |①-②-|
③④②⑦ |③④-⑤|
⑦②④③ |-⑥-⑦|
①⑤口⑥
12
⑥口⑤① |①-②-|
③④②⑦ |③④-⑤|
⑦②④③ |-⑥-⑦|
①⑤口⑥
13
⑥口⑤① |①-②-|
③④②⑦ |③④-⑤|
⑦②④③ |-⑥-⑦|
①⑤口⑥
14
口⑤口④ |①-②-|
③口⑥口 |③④-⑤|
口①②口 |-⑥-⑦|
口⑦口口
15
①口①口 |①---|
口口口口 |----|
口①口① |----|
口口口口
16
②⑥⑤② |①②-③|
①⑤⑥① |④-⑤⑥|
口④④口
口③③口

⑦口口⑦
口口口口
口口口口 |--⑦-|
口口口口
17
口④④口 |①②-③|
口③③口 |④-⑤⑥|
②⑤⑥②
①⑥⑤①

口口口口
口口口口
口口口口 |--⑦-|
⑦口口⑦
18
口口②① |①---|
②①①② |---②|
①②口口 |----|
口口口口
19
⑥④④⑤ |①②-③|
⑤③③⑥ |④-⑤⑥|
②口口② |--⑦-|
①⑦⑦①
20
⑤②②⑥ |①②-③|
⑥①①⑤ |④-⑤⑥|
④⑦⑦④ |--⑦-|
③口口③
21
⑥③④⑤ |①②-③|
⑤④③⑥ |④-⑤⑥|
②口口① |--⑦-|
①⑦⑦②
22
口口口② |①---|
口②①口 |---②|
口①②① |----|
①②口口
23
口④④口 |①②③-|
③⑦⑦③ |④-⑤⑥|
②⑥⑤② |--⑦-|
①⑤⑥①
24
②⑥⑤② |①②-③|
①⑤⑥① |④-⑤⑥|
口④④口
口③③口

⑦口口⑦
口口口口
口口口口 |--⑦-|
口口口口
25
口④④口 |①②-③|
口③③口 |④-⑤⑥|
②⑤⑥②
①⑥⑤①

口口口口
口口口口
口口口口 |--⑦-|
⑦口口⑦
26
口口②① |①---|
②①①② |---②|
①②口口 |----|
口口口口
27
⑥④④⑤ |①②-③|
⑤③③⑥ |④-⑤⑥|
②口口② |--⑦-|
①⑦⑦①
28
⑤②②⑥ |①②-③|
⑥①①⑤ |④-⑤⑥|
④⑦⑦④ |--⑦-|
③口口③
29
⑥③④⑤ |①②-③|
⑤④③⑥ |④-⑤⑥|
②口口① |--⑦-|
①⑦⑦②
30
口口口② |①---|
口②①口 |---②|
口①②① |----|
①②口口
31
口⑤口⑥ |--①②|
⑥口⑤口 |③④--|
③口口② |⑤-⑥-|
①口口④
32
口⑤口⑥ |--①②|
⑥口⑤口 |③④--|
口③②口 |⑤-⑥-|
口①④口
33
口口口口 |--①②|
⑤口口① |③④--|
口⑥②口 |⑤⑥⑦⑧|
⑦⑧④③
34
口③④⑤ |--①②|
口⑥口口 |③④⑤-|
①口⑦② |⑥⑦⑧-|
口⑧口口
35
⑤⑥⑦口 |--①-|
口③④口 |②-③④|
②口口① |⑤⑥⑦-|
②口口①
36
⑤口口① |--①②|
口⑥②口 |③④-⑤|
⑦口口③ |⑥⑦⑧-|
口⑧④口
37
口⑤①口 |--①②|
⑥口口② |③④-⑤|
口⑦③口 |⑥⑦⑧-|
⑧口口④
38
口口口口 |--①-|
口口①① |--②③|
③②口口
口口口口

口口口口
口④④口
口口口口 |--④-|
口口口口
39
⑧口口⑦ |①-②-|
⑥⑧⑦⑤ |③④⑤⑥|
口②③口 |⑦-⑧-|
④口口①
40
口①①口 |①---|
②口口口 |②---|
①口口①
口口口口

口口口口
口口③口
⑤口口口 |③④-⑤|
④口口口
41
⑤⑥口③ |①-②③|
⑧④口⑨ |④⑤⑥-|
口②口① |⑦⑧-⑨|
口口口⑦
42
②⑤⑥② |①②--|
口①口⑦ |--③-|
④口③口 |④⑤⑥⑦|
口口口口
43
口口口口 |①②③-|
⑤③口口 |④-⑤⑥|
口②口⑥
④①口④

⑦口口口
口口⑨口
口⑧口口 |⑦⑧⑨-|
口口口口
44
口口口口 |--①-|
①③④② |②-③④|
⑥⑦⑦⑤ |⑤⑥-⑦|
口口口口
45
口口口口 |----|
③口口③ |①-②-|
②口口② |③---|
①口口①
46
口口口口 |①-②-|
口口口口 |--③④|
口③④⑤ |⑤---|
①口口②
47
口口口口 |①-②-|
口③④口 |③④-⑤|
①口口⑤ |-⑥-⑦|
⑥口⑦②
48
①口口口 |--①-|
口口①② |-②--|
③②口口 |③---|
口口③口
49
口口③口 |--①-|
②口口口 |②③-④|
⑤⑥口口 |⑤-⑥-|
①口④⑥
50
口口口① |--①-|
②①口口 |-②--|
口口②③ |③---|
口③口口
51
口③③口 |--①-|
②口口① |-②--|
口口口口 |③-④-|
①④④②
52
①口口口 |--①-|
口口①② |-②--|
③②口口 |③---|
口口③口
53
口口③口 |--①-|
②口口口 |②③-④|
⑤⑥口口 |⑤-⑥-|
①口④⑥
54
口口口① |--①-|
②①口口 |-②--|
口口②③ |③---|
口③口口
55
口口②口 |①---|
②口②① |--②-|
②①口口 |----|
①口①口
56
②口③④ |①--②|
口②口口 |-③④-|
⑤口口① |--⑤-|
⑤口①口
57
口④③口 |①--②|
②③④② |--③-|
口口①口 |④---|
口①口口
58
③口口口 |--①-|
④口口口 |-②--|
口①③② |③-④-|
口②④①
59
口②③② |①--②|
③①①口 |--③-|
口口口口
口口口口

口口口口
口④口口
口口⑤④ |④-⑤-|
⑤口口口
60
④③口② |--①-|
口口②口 |-②-③|
①口口口 |④---|
口①口口
61
口口口口 |--①-|
口③④① |-②-③|
①②口口 |④-⑤-|
⑤口②⑤
62
③口口② |--①-|
②口口③ |-②--|
口口口口 |③---|
口①①口
63
③③④④ |①--②|
口④③口 |--③-|
②②①① |-④--|
口①②口
64
口②③口 |①--②|
④③②① |--③-|
③④①② |-④--|
口①④口
65
口②口口 |①--②|
口③②口 |--③-|
③④①口 |-④--|
口①④口
66
口口口口 |①--②|
口③②口 |--③-|
口口①口 |----|
口口口口


不确定度: 0

最終更新:2013年03月23日 20:40