銀河
フジファブリック

ADVANCED

Level: 7
BPM: 147
Notes: 500

全程BPM在147附近飄忽不定
1
口口口口 |----|
口口口口 |----|
口口口口 |----|
口口口口 |----|
2
口②④③ |①-②③|
⑤⑦⑥口 |④-⑤⑥|
口⑧⑩⑨ |⑦-⑧⑨|
⑪口⑫① |⑩-⑪⑫|
3
口②④③ |①-②③|
⑤⑦⑥口 |④-⑤⑥|
口⑧⑩⑨ |⑦-⑧⑨|
⑪①⑫口 |⑩-⑪⑫|
4
口②④③ |①-②③|
⑤⑦⑥口 |④-⑤⑥|
口⑩口⑧ |⑦-⑧-|
口①⑨口 |⑨-⑩-|
5
口口口口 |①-②-|
口口口口 |----|
口口口口 |----|
①口口② |----|
6
口③④② |①-②③|
⑥口⑤口 |④-⑤⑥|
口口口口
①口口口

口口口口
口⑦口口
口⑨⑩⑧ |⑦-⑧⑨|
⑫口⑪口 |⑩-⑪⑫|
7
口③④② |①-②③|
⑥⑦⑤口 |④-⑤⑥|
口⑨⑩⑧ |⑦-⑧⑨|
⑫①⑪口 |⑩-⑪⑫|
8
口③④② |①-②③|
⑥⑦⑤⑩ |④-⑤⑥|
⑨口口口 |⑦-⑧-|
口①口⑧ |⑨-⑩-|
9
①①①① |①---|
口口口口 |----|
②②②② |②---|
口口口口 |----|
10
①①口口 |①-②-|
口⑤口② |③-④⑤|
口⑨⑧口 |-⑥⑦-|
③⑦⑥④ |⑧-⑨-|
11
口口①① |①-②-|
②口⑤口 |③-④⑤|
口⑧⑨口 |-⑥⑦-|
④⑥⑦③ |⑧-⑨-|
12
①①口口 |①-②-|
口⑤口② |③-④⑤|
口⑨⑧口 |-⑥⑦-|
③⑦⑥④ |⑧-⑨-|
13
口口①① |①-②-|
②口口口 |③-④-|
⑥⑥⑤⑤ |⑤---|
④口口③ |⑥---|
14
①①口口 |①-②-|
口⑤口② |③-④⑤|
口⑨⑧口 |-⑥⑦-|
③⑦⑥④ |⑧-⑨-|
15
口口①① |①-②-|
②口⑤口 |③-④⑤|
口⑧⑨口 |-⑥⑦-|
④⑥⑦③ |⑧-⑨-|
16
①①口口 |①-②-|
口⑤口② |③-④⑤|
口⑨⑧口 |-⑥⑦-|
③⑦⑥④ |⑧-⑨-|
17
⑥⑥①① |①-②-|
②口⑤⑤ |③-④-|
口口口口 |⑤---|
④口口③ |⑥---|
18
口⑧⑦⑥ |①-②-|
②③④⑤ |③-④-|
①①口口 |⑤-⑥-|
口口口口 |⑦-⑧-|
19
①口口口 |①-②-|
口口口口 |③-④-|
口⑧⑦⑥ |⑤-⑥-|
②③④⑤ |⑦-⑧-|
20
②③④口 |①-②-|
口口①① |③-④-|
口口口口
口口口口

口口口⑤
⑥⑦⑧口
口口口口 |⑤-⑥-|
口口口口 |⑦-⑧-|
21
口口口口 |①-②-|
口口口① |③-④-|
⑤④③② |⑤-⑥-|
口口⑦⑥ |⑦---|
22
口⑧⑦⑥ |①-②-|
②③④⑤ |③-④-|
口口①① |⑤-⑥-|
口口口口 |⑦-⑧-|
23
①口口口 |①-②-|
口口口口 |③-④-|
口⑧⑦⑥ |⑤-⑥-|
②③④⑤ |⑦-⑧-|
24
②③④口 |①-②-|
口口①① |③-④-|
口口口口
口口口口

口口口⑤
⑥⑦⑧口
口口口口 |⑤-⑥-|
口口口口 |⑦-⑧-|
25
口口口口 |①-②-|
⑦口口① |③-④-|
⑥口口口 |⑤-⑥-|
⑤④③② |⑦---|
26
⑥口口③ |①-②-|
口⑥③口 |③---|
⑤①④② |④-⑤-|
口口口口 |⑥---|
27
口口口口 |①-②-|
⑥口口③ |③---|
口⑥③口 |④-⑤-|
⑤①④② |⑥---|
28
口口口口 |①-②-|
⑤①④② |③---|
口⑥③口 |④-⑤-|
⑥口口③ |⑥---|
29
④①④② |①-②-|
口⑤③⑤ |③---|
口口口③ |④---|
口口口口 |⑤---|
30
⑥口口③ |①-②-|
口⑥③口 |③---|
⑤①④② |④-⑤-|
口口口口 |⑥---|
31
口口口口 |①-②-|
⑥口口③ |③---|
口⑥③口 |④-⑤-|
⑤①④② |⑥---|
32
口⑥口口 |①-②-|
⑤①④② |③---|
口⑥③口 |④-⑤-|
口口口③ |⑥---|
33
口口①口 |①---|
口口口口 |②---|
②口①②
口口口口

口口口口
口口口口
口④④口 |③---|
③口口③ |④---|
34
①①口口 |①-②-|
口⑤口② |③-④⑤|
口⑨⑧口 |-⑥⑦-|
③⑦⑥④ |⑧-⑨-|
35
口口①① |①-②-|
②口⑤口 |③-④⑤|
口⑧⑨口 |-⑥⑦-|
④⑥⑦③ |⑧-⑨-|
36
①①①① |①---|
②②②② |--②-|
口口口口 |----|
口口口口 |----|
37
口口口口 |----|
口口口口 |----|
口口口口 |----|
口口口口 |----|
38
①①口口 |①-②-|
口⑤口② |③-④⑤|
口⑨⑧口 |-⑥⑦-|
③⑦⑥④ |⑧-⑨-|
39
口口①① |①-②-|
②口⑤口 |③-④⑤|
口⑧⑨口 |-⑥⑦-|
④⑥⑦③ |⑧-⑨-|
40
①①①① |①---|
②②②② |--②-|
口口口口 |----|
口口口口 |----|
41
口口口口 |①---|
口口口③ |②-③-|
②口口口
口口①口

口口口口
口④④口
口⑥⑥口 |--④-|
口⑤⑤口 |⑤-⑥-|
42
口②④③ |①-②③|
⑤⑦⑥口 |④-⑤⑥|
口⑧⑩⑨ |⑦-⑧⑨|
⑪口⑫① |⑩-⑪⑫|
43
口②④③ |①-②③|
⑤⑦⑥口 |④-⑤⑥|
口⑧⑩⑨ |⑦-⑧⑨|
⑪①⑫口 |⑩-⑪⑫|
44
口②④③ |①-②③|
⑤⑦⑥口 |④-⑤⑥|
口⑩口⑧ |⑦-⑧-|
口①⑨口 |⑨-⑩-|
45
口口口口 |①---|
口②②口 |----|
口口口口 |②---|
①口口口 |----|
46
④②②④ |①---|
口②口口 |②---|
①①③③ |③---|
①①③③ |④---|
47
口口口口 |①-②-|
口⑤⑥口 |③-④-|
①②③口 |⑤---|
口⑥⑤④ |⑥---|
48
②口口② |①---|
①口口① |②---|
③口口③ |③---|
④口口④ |④---|
49
口①口① |①-②-|
口②口口 |③-④-|
口③④口 |⑤---|
⑤口⑤口 |----|
50
口①口口 |①---|
口④口口 |②---|
口口口② |③---|
③口口口 |④---|
51
⑥口口口 |①-②-|
口口口⑤ |③-④-|
④口①口 |⑤---|
口②③口 |⑥---|
52
口口①① |①---|
口口④④ |②---|
口口③③ |③---|
口口②② |④---|
53
口口①① |①---|
口口口口 |----|
口口口口 |----|
口口口口 |----|
54
④②②④ |①---|
口②口口 |②---|
①①③③ |③---|
①①③③ |④---|
55
口口口口 |①-②-|
口⑥⑤口 |③-④-|
①②③口 |⑤---|
口⑤⑥④ |⑥---|
56
④口口④ |①---|
③口口③ |②---|
①口口① |③---|
②口口② |④---|
57
口⑤口⑤ |①-②-|
口④③口 |③-④-|
口口②口 |⑤---|
①口①口 |----|
58
口口口口 |①---|
②口口③ |②---|
口口④口 |③---|
口口①口 |④---|
59
口口②口 |①-②-|
口①口④ |③-④-|
⑤③口口 |⑤---|
口口口⑥ |⑥---|
60
①①口口 |①---|
④④口口 |②---|
③③口口 |③---|
②②口口 |④---|
61
①①口口 |①---|
口口口口 |----|
口口口口 |----|
口口口口 |----|


不确定度: 0

最終更新:2013年03月23日 13:51