銀河
フジファブリック

EXTREME

Level: 9
BPM: 147
Notes: 674

全程BPM在147附近飄忽不定
1
口口口口 |----|
口口口口 |----|
口口口口 |----|
口口口口 |----|
2
②③口口 |①-②③|
⑤⑥口④ |④-⑤⑥|
口口口口
口口口①

口口口口
口口口口
⑧⑨口⑦ |⑦-⑧⑨|
⑪⑫口⑩ |⑩-⑪⑫|
3
②③口① |①-②③|
⑤⑥口④ |④-⑤⑥|
⑧⑨口⑦ |⑦-⑧⑨|
⑪⑫口⑩ |⑩-⑪⑫|
4
②③口① |①-②③|
⑤⑥口④ |④-⑤⑥|
⑧口⑩⑦ |⑦-⑧-|
口⑨口口 |⑨-⑩-|
5
口口口口 |①-②-|
口②②口 |----|
口口口口
口口口①

口口口口
③口口口
④口口③ |③---|
口口口④ |④---|
6
口口③② |①-②③|
④口⑥⑤ |④-⑤⑥|
口口口口
①口口口

口口口口
口口口口
⑦口⑨⑧ |⑦-⑧⑨|
⑩口⑫⑪ |⑩-⑪⑫|
7
①口③② |①-②③|
④口⑥⑤ |④-⑤⑥|
⑦口⑨⑧ |⑦-⑧⑨|
⑩口⑫⑪ |⑩-⑪⑫|
8
①口③② |①-②③|
④口⑥⑤ |④-⑤⑥|
口口口口
口口口口

口口⑩口
口⑨口口
⑦口⑧口 |⑦-⑧-|
口口口口 |⑨-⑩-|
9
口②口② |①---|
口口②口 |----|
口②口② |②---|
①①①① |----|
10
口口⑤口 |①-②-|
④口口① |③-④⑤|
①口②口
口③口口

口口口⑥
口⑦口⑨
⑨口口口 |-⑥⑦-|
口口⑧口 |⑧-⑨-|
11
口①⑤⑥ |①-②-|
④⑦口口 |③-④⑤|
口⑨②① |-⑥⑦-|
口③⑧口 |⑧-⑨-|
12
口①⑤口 |①-②-|
④口口口 |③-④⑤|
①口②口
口③口口

口口口⑥
口⑦口⑨
⑨口口口 |-⑥⑦-|
口口⑧口 |⑧-⑨-|
13
口①口口 |①-②-|
④口⑦⑧ |③-④-|
⑥⑤②① |⑤⑥--|
口③口口 |⑦⑧--|
14
口①⑤⑥ |①-②-|
④口⑦⑨ |③-④⑤|
口⑨②口 |-⑥⑦-|
⑧③口① |⑧-⑨-|
15
口①口口 |①-②-|
④③口口 |③-④⑤|
②口口口
口⑤③③

⑨⑩口口
口口⑨⑨
口⑧⑥⑥ |⑥⑦⑧-|
⑦口口口 |⑨-⑩-|
16
口口①① |①-②-|
③②口口 |③-④⑤|
①④口口
⑤口口口

⑦⑥口口
口口口口
⑨口口口 |-⑥⑦-|
口⑧口口 |⑧-⑨-|
17
口口③口 |①-②-|
口口口① |③-④-|
口口口④
口口②口

口口口口
口口⑦⑧
⑥⑤口口 |⑤⑥--|
口口口口 |⑦⑧--|
18
①①①① |①-②-|
②口⑧口 |③-④-|
口③⑦口 |⑤-⑥-|
④⑤⑥口 |⑦-⑧-|
19
①①①① |①-②-|
口⑧口② |③-④-|
⑦口⑦③ |⑤-⑥-|
口⑥⑤④ |⑦-⑧-|
20
①①①① |①-②-|
⑧口②口 |③-④-|
⑦③口③ |⑤-⑥-|
⑥⑤④口 |⑦-⑧-|
21
①①①① |①-②-|
口②⑤⑥ |③-④-|
口③④⑦ |⑤-⑥-|
口口口口 |⑦---|
22
④⑤⑥口 |①-②-|
口③⑦口 |③-④-|
②口⑧口 |⑤-⑥-|
①①①① |⑦-⑧-|
23
口⑥⑤④ |①-②-|
⑦口⑦③ |③-④-|
口⑧口② |⑤-⑥-|
①①①① |⑦-⑧-|
24
⑥⑤④口 |①-②-|
⑦③口③ |③-④-|
⑧口②口 |⑤-⑥-|
①①①① |⑦-⑧-|
25
口④口⑦ |①-②-|
口③⑥⑥ |③-④-|
口②口⑤ |⑤-⑥-|
①①①① |⑦---|
26
①口③⑩ |①②③-|
口②⑨⑨ |④-⑤-|
口⑦④④ |⑥⑦⑧-|
⑥口⑧⑤ |⑨-⑩-|
27
①口③⑩ |①②③-|
口②⑨⑨ |④-⑤-|
口⑦④④ |⑥⑦⑧-|
⑥口⑧⑤ |⑨-⑩-|
28
①口③⑩ |①②③-|
口②⑨⑨ |④-⑤-|
口⑦④④ |⑥⑦⑧-|
⑥口⑧⑤ |⑨-⑩-|
29
①口③口 |①②③-|
口②⑥⑥ |④-⑤-|
口口④④ |⑥---|
⑦⑦口⑤ |⑦---|
30
⑨⑨④④ |①②③-|
⑩口口⑤ |④-⑤-|
⑥③⑧① |⑥⑦⑧-|
口⑦②口 |⑨-⑩-|
31
⑨⑨④④ |①②③-|
⑩口口⑤ |④-⑤-|
⑥③⑧① |⑥⑦⑧-|
口⑦②口 |⑨-⑩-|
32
口口口④ |①②③-|
口口⑤口 |④-⑤-|
口③口①
口口②口

⑥口⑧口
口⑦口口
⑨口口⑨ |⑥⑦⑧-|
口口口口 |⑨---|
33
④④④④ |①---|
①③③① |②---|
口②②口 |③---|
①③③① |④---|
34
口口⑤口 |①-②-|
④口口口 |③-④⑤|
①口②①
口③口口

口口口⑥
口⑦口⑨
⑨口口口 |-⑥⑦-|
口口⑧口 |⑧-⑨-|
35
口①⑤⑥ |①-②-|
④⑦口口 |③-④⑤|
口⑨②① |-⑥⑦-|
口③⑧口 |⑧-⑨-|
36
①①口⑤ |①---|
③口②② |--②-|
口口①① |--③-|
②②④口 |④-⑤-|
37
口口口口 |①---|
口口口④ |--②③|
口①口① |--④-|
③②⑤⑥ |⑤⑥--|
38
⑦⑥口① |①-②-|
③②口口 |③-④⑤|
①④⑨口 |-⑥⑦-|
⑤⑧口口 |⑧-⑨-|
39
口口口口 |①-②-|
口口③② |③-④⑤|
①口口④
口口⑤①

口口⑦⑥
口口口口
口口⑨口 |-⑥⑦-|
口口口⑧ |⑧-⑨-|
40
①①口口 |①---|
②②口③ |--②-|
①①口口 |--③-|
②②④⑤ |④-⑤-|
41
口①①口 |①---|
③②②③ |②-③-|
口①①口
口口口口

口口口口
口口口口
④⑤⑤④ |--④-|
⑥⑥⑥⑥ |⑤-⑥-|
42
①口③② |①-②③|
④口⑥⑤ |④-⑤⑥|
⑦口⑨⑧ |⑦-⑧⑨|
⑩口⑫⑪ |⑩-⑪⑫|
43
①口③② |①-②③|
④口⑥⑤ |④-⑤⑥|
⑦口⑨⑧ |⑦-⑧⑨|
⑩口⑫⑪ |⑩-⑪⑫|
44
①口③② |①-②③|
④口⑥⑤ |④-⑤⑥|
口口口口
口口口口

口口⑩口
口⑨口口
⑦口⑧口 |⑦-⑧-|
口口口口 |⑨-⑩-|
45
口②口② |①---|
口口②口 |----|
口②口② |②---|
①①①① |----|
46
口②②口 |①---|
口②②口 |②---|
①②①口
①①①口

③口口③
③口口③
④口口④ |③---|
口口口口 |④---|
47
④③⑤⑥ |①-②-|
⑤②④口 |③-④-|
⑥①③口 |⑤---|
口口②① |⑥---|
48
口口口口 |①---|
④②③① |②---|
口③②口 |③---|
③①④② |④---|
49
②①①② |①-②-|
口④③口 |③-④-|
口③④口 |⑤---|
⑤口口⑤ |----|
50
③②口④ |①---|
②口口① |②---|
①④③② |③---|
④①口③ |④---|
51
⑤①①⑤ |①-②-|
②③③② |③-④-|
④口口④ |⑤---|
⑥口口⑥ |⑥---|
52
口④④口 |①---|
口②②口 |②---|
口③③口 |③---|
口①①口 |④---|
53
①口口① |①---|
口口口口 |----|
①口口① |----|
口口口口 |----|
54
口②②口 |①---|
口②②口 |②---|
①②①口
①①①口

③口口③
③口口③
④口口④ |③---|
口口口口 |④---|
55
④③⑤⑥ |①-②-|
⑤②④口 |③-④-|
⑥①③口 |⑤---|
口口②① |⑥---|
56
口口口口 |①---|
④②③① |②---|
口③②口 |③---|
③①④② |④---|
57
②①①② |①-②-|
口③④口 |③-④-|
口④③口 |⑤---|
⑤口口⑤ |----|
58
③②口④ |①---|
②口口① |②---|
①④③② |③---|
④①口③ |④---|
59
⑤①①⑤ |①-②-|
②③③② |③-④-|
④口口④ |⑤---|
⑥口口⑥ |⑥---|
60
口④④口 |①---|
口②②口 |②---|
口③③口 |③---|
口①①口 |④---|
61
①口口① |①---|
口口口口 |----|
①口口① |----|
口口口口 |----|
62
口口⑤口 |①-②-|
④口口① |③-④⑤|
①口②口
口③口口

口口口⑥
口⑦口⑨
⑨口口口 |-⑥⑦-|
口口⑧口 |⑧-⑨-|
63
口①⑤口 |①-②-|
④口口口 |③-④⑤|
口口②①
口③口口

口口口⑥
口⑦口口
口⑨口⑨ |-⑥⑦-|
口口⑧口 |⑧-⑨-|


不确定度: 0

最終更新:2013年03月23日 13:51