Supercalifragilisticexpialidocious

BASIC

Level: 4
BPM: 149-192
Notes: 292

1
口口口口 |----|
口口口口 |----|
口口口口 |----|
口口口口 |----|
2
口口口口 |①---|
①口口② |----|
口口口口 |②---|
口口口口 |----|
3
③口口③ |①---|
口口口口 |----|
口①①口 |②---|
②口口② |③---|

BPM: 151
4
口口口口 |①---|
口口口口 |----|
①口口② |②---|
口口口口 |----|
5
③口口③ |①---|
口①①口 |----|
口口口口 |②---|
②口口② |③---|

BPM: 153
6
口口口口 |①---|
口②②口 |----|
口①①口 |②---|
口口口口 |----|
7
③①①③ |①---|
口口口口 |----|
口口口口 |②---|
②口口② |③---|

BPM: 152
8
口口口口 |①---|
①口口② |----|
口口口口 |②---|
口口口口 |----|

BPM: 151
9
③口口③ |①---|
口口口口 |----|
口①①口 |②---|
②口口② |③---|
10
口口口口 |①---|
口①②口 |②---|
口④③口 |③---|
口口口口 |④---|
11
口口口口 |①---|
口①②口 |②---|
口④③口 |③---|
口口口口 |④---|
12
口口口口 |①---|
口口口口 |②---|
口③④口 |③---|
口②①口 |④---|

BPM: 152
13
口口口口 |①---|
口口口口 |②---|
口③④口 |③---|
口②①口 |④---|
14
口口口口 |①---|
①口口② |----|
口口口口 |②---|
口口口口 |----|
15
口②②口 |①---|
口口口口 |----|
口①①口 |②---|
口口口口 |----|
16
口口口口 |①---|
口①②口 |----|
口口口口 |②---|
口口口口 |----|
17
②口口② |①---|
口口口口 |----|
①口口① |②---|
口口口口 |----|
18
口口口口 |①---|
口①①口 |----|
口②②口 |②---|
口口口口 |----|
19
③口口③ |①---|
②口口② |②---|
①口口① |③---|
口口口口 |----|

BPM: 152.5
20
口口口口 |①---|
①口口② |----|
①口口② |②---|
口口口口 |----|
21
④口口④ |①---|
口③③口 |②---|
口②②口 |③---|
口①①口 |④---|

BPM: 155-160
22
口口口口 |①---|
①口口② |----|
口口口口 |②---|
口口口口 |----|

BPM: 161
23
③口口③ |①---|
口口口口 |----|
口①①口 |②---|
②口口② |③---|
24
口口口口 |①---|
口口口口 |----|
①口口② |②---|
口口口口 |----|
25
③口口③ |①---|
口①①口 |----|
口口口口 |②---|
②口口② |③---|

BPM: 159
26
口口口口 |①---|
口②②口 |----|
口①①口 |②---|
口口口口 |----|

BPM: 157
27
③①①③ |①---|
口口口口 |----|
口口口口 |②---|
②口口② |③---|

BPM: 159
28
口口口口 |①---|
①口口② |----|
口口口口 |②---|
口口口口 |----|

BPM: 160
29
③口口③ |①---|
口口口口 |----|
口①①口 |②---|
②口口② |③---|
30
口口口口 |①---|
口①②口 |②---|
口④③口 |③---|
口口口口 |④---|

BPM: 161
31
口口口口 |①---|
口①②口 |②---|
口④③口 |③---|
口口口口 |④---|

BPM: 162
32
口①②口 |①---|
口④③口 |②---|
口口口口 |③---|
口口口口 |④---|
33
口①②口 |①---|
口④③口 |②---|
口口口口 |③---|
口口口口 |④---|

BPM: 160
34
口口口口 |①---|
①口口② |----|
①口口② |②---|
口口口口 |----|
35
口口口口 |①---|
口②②口 |----|
口①①口 |②---|
口口口口 |----|
36
口口口口 |①---|
①口口口 |----|
口口口② |②---|
口口口口 |----|
37
口口口口 |①---|
口①口口 |----|
口口②口 |②---|
口口口口 |----|
38
口口口口 |①---|
口口②① |----|
①②口口 |②---|
口口口口 |----|
39
口口口口 |①---|
②①口口 |----|
口口①② |②---|
口口口口 |----|
40
口口口口 |①---|
口口口口 |----|
②口口② |②---|
①口口① |----|
41
口③③口 |①---|
口②②口 |②---|
口①①口 |③---|
口口口口 |----|
42
口口口口 |①---|
①口口② |----|
口口口口 |②---|
口口口口 |----|
43
③口口③ |①---|
口口口口 |----|
口①①口 |②---|
②口口② |③---|
44
口口口口 |①---|
口口口口 |----|
①口口② |②---|
口口口口 |----|

BPM: 161
45
③口口③ |①---|
口①①口 |----|
口口口口 |②---|
②口口② |③---|
46
口口口口 |①---|
口②②口 |----|
口①①口 |②---|
口口口口 |----|
47
③①①③ |①---|
口口口口 |----|
口口口口 |②---|
②口口② |③---|

BPM: 159
48
口口口口 |①---|
①口口② |----|
口口口口 |②---|
口口口口 |----|
49
③口口③ |①---|
口口口口 |----|
口①①口 |②---|
②口口② |③---|
50
口口口口 |①---|
口①②口 |②---|
口④③口 |③---|
口口口口 |④---|

BPM: 160
51
口口口口 |①---|
口①②口 |②---|
口④③口 |③---|
口口口口 |④---|
52
口口口口 |①---|
口口口口 |②---|
口③④口 |③---|
口②①口 |④---|
53
口口口口 |①---|
口口口口 |②---|
口③④口 |③---|
口②①口 |④---|
54
口口口口 |①---|
口口口口 |②---|
口③④口 |③---|
口②①口 |④---|
55
口口口口 |①---|
口口口口 |②---|
口③④口 |③---|
口②①口 |④---|
56
①②③④ |①---|
口口口口 |②---|
口口口口 |③---|
口口口口 |④---|
57
口口口口 |①---|
口①①口 |②---|
口②②口 |③---|
口③③口 |----|
58
①②③④ |①---|
口口口口 |②---|
口口口口 |③---|
口口口口 |④---|
59
口口口口 |①---|
口③③口 |②---|
口②②口 |③---|
口①①口 |----|
60
口口口口 |①---|
①口口② |----|
①口口② |②---|
口口口口 |----|
61
口③③口 |①---|
口②②口 |②---|
口①①口 |③---|
口口口口 |----|

BPM: 155
62
口口口口 |----|
口口口口 |----|
口口口口 |----|
口口口口 |----|
63
口口口口 |----|
口口口口 |----|
口口口口 |----|
口口口口 |----|
64
口口口口 |----|
口口口口 |----|
口口口口 |----|
口口口口 |----|
65
口口口口 |----|
口口口口 |----|
口口口口 |----|
口口口口 |----|
66
口口口口 |----|
口口口口 |----|
口口口口 |----|
口口口口 |----|
67
口口口口 |----|
口口口口 |----|
口口口口 |----|
口口口口 |----|
68
口口口口 |----|
口口口口 |----|
口口口口 |----|
口口口口 |----|

BPM: 177
69
口口口口 |①---|
①口口② |----|
口口口口 |②---|
口口口口 |----|

BPM: 179
70
③口口③ |①---|
口口口口 |----|
口①①口 |②---|
②口口② |③---|

BPM: 184
71
口口口口 |①---|
①口口② |----|
口口口口 |②---|
口口口口 |----|

BPM: 188
72
③口口③ |①---|
口口口口 |----|
口①①口 |②---|
②口口② |③---|

BPM: 192
73
口口口口 |①---|
①口口② |----|
口口口口 |②---|
口口口口 |----|
74
③口口③ |①---|
口口口口 |----|
口①①口 |②---|
②口口② |③---|
75
口口口口 |①---|
①口口② |----|
口口口口 |②---|
口口口口 |----|
76
③口口③ |①---|
口口口口 |----|
口①①口 |②---|
②口口② |③---|

BPM: 175
77
口口口口 |----|
口口口口 |----|
口口口口 |----|
口口口口 |----|

BPM: 187.6
78
口口口口 |①---|
①口口② |----|
口口口口 |②---|
口口口口 |----|
79
③口口③ |①---|
口口口口 |----|
口①①口 |②---|
②口口② |③---|

不确定度: 0

最終更新:2012年11月15日 17:45