Supercalifragilisticexpialidocious

ADVANCED

Level: 5
BPM: 149-192
Notes: 420

1
口口口口 |----|
口口口口 |----|
口口口口 |----|
口口口口 |----|
2
口口口口 |①---|
①②口口 |②---|
③④口口 |③---|
口口口口 |④---|
3
③口口④ |①---|
口口②② |②---|
③口口④ |③---|
口口①① |④---|

BPM: 151
4
口口口口 |①---|
①②口口 |②---|
③④口口 |③---|
口口口口 |④---|
5
③口口④ |①---|
口口①① |②---|
③口口④ |③---|
口口②② |④---|

BPM: 153
6
口口口口 |①---|
①②口口 |②---|
③④口口 |③---|
口口口口 |④---|
7
③口口④ |①---|
口口①② |②---|
③口口④ |③---|
口口①② |④---|

BPM: 152
8
口口口口 |①---|
①②口口 |②---|
③④口口 |③---|
口口口口 |④---|

BPM: 151
9
③口口④ |①---|
口口②② |②---|
③口口④ |③---|
口口①① |④---|
10
口⑤⑥口 |①-②-|
①②③④ |③-④-|
口口口口 |⑤---|
口口口口 |⑥---|
11
口⑤⑥口 |①-②-|
①②③④ |③-④-|
口口口口 |⑤---|
口口口口 |⑥---|
12
口⑤⑥口 |①-②-|
口口口口 |③-④-|
①②③④ |⑤---|
口口口口 |⑥---|

BPM: 152
13
口⑤⑥口 |①-②-|
口口口口 |③-④-|
①②③④ |⑤---|
口口口口 |⑥---|
14
口口口口 |①---|
口口①② |②---|
口口③④ |③---|
口口口口 |④---|
15
口口口口 |①---|
①②口口 |②---|
③③口口 |③---|
口口口口 |----|
16
口口口口 |①---|
口口①② |②---|
口口③④ |③---|
口口口口 |④---|
17
口口口口 |①---|
①①口口 |②---|
②②口口 |③---|
③③口口 |----|
18
口口口口 |①---|
口口①② |②---|
口口③④ |③---|
口口口口 |④---|
19
③③口口 |①---|
②②口口 |②---|
①①口口 |③---|
口口口口 |----|

BPM: 152.5
20
口口口口 |①---|
②②②② |----|
①①①① |②---|
口口口口 |----|
21
①②③④ |①---|
口口口④ |②---|
口口口④ |③---|
①②③④ |④---|

BPM: 155-160
22
口口口口 |①---|
①②口口 |②---|
③④口口 |③---|
口口口口 |④---|

BPM: 161
23
③口口④ |①---|
口口②② |②---|
③口口④ |③---|
口口①① |④---|
24
口口口口 |①---|
①②口口 |②---|
③④口口 |③---|
口口口口 |④---|
25
③口口④ |①---|
口口①① |②---|
③口口④ |③---|
口口②② |④---|

BPM: 159
26
口口口口 |①---|
①②口口 |②---|
③④口口 |③---|
口口口口 |④---|

BPM: 157
27
③口口④ |①---|
口口①② |②---|
③口口④ |③---|
口口①② |④---|

BPM: 159
28
口口口口 |①---|
①②口口 |②---|
③④口口 |③---|
口口口口 |④---|

BPM: 160
29
③口口④ |①---|
口口②② |②---|
③口口④ |③---|
口口①① |④---|
30
口⑤⑥口 |①-②-|
①②③④ |③-④-|
口口口口 |⑤---|
口口口口 |⑥---|

BPM: 161
31
口⑤⑥口 |①-②-|
①②③④ |③-④-|
口口口口 |⑤---|
口口口口 |⑥---|

BPM: 162
32
口⑤⑥口 |①-②-|
①②③④ |③-④-|
①②③④ |⑤---|
口口口口 |⑥---|
33
口⑤⑥口 |①-②-|
①②③④ |③-④-|
①②③④ |⑤---|
口口口口 |⑥---|

BPM: 160
34
口口口口 |①---|
①口口② |②---|
①③③② |③---|
口④④口 |④---|
35
③口口③ |①---|
口②②口 |②---|
口②②口 |③---|
①口口① |----|
36
口口口口 |①---|
①②口口 |②---|
④③口口 |③---|
口口口口 |④---|
37
口口口③ |①---|
口口③口 |②---|
口口②② |③---|
口口①① |----|
38
口口口口 |①---|
口口④③ |②---|
口口②① |③---|
口口口口 |④---|
39
②①口口 |①---|
③③口口 |②---|
②①口口 |③---|
口口口口 |----|
40
口口口口 |①---|
口口②① |②---|
口口③④ |③---|
口口口口 |④---|
41
③口口口 |①---|
口③口口 |②---|
②②口口 |③---|
①①口口 |----|
42
口口口口 |①---|
①②口口 |②---|
③④口口 |③---|
口口口口 |④---|
43
③口口④ |①---|
口口②② |②---|
③口口④ |③---|
口口①① |④---|
44
口口口口 |①---|
①②口口 |②---|
③④口口 |③---|
口口口口 |④---|

BPM: 161
45
③口口④ |①---|
口口①① |②---|
③口口④ |③---|
口口②② |④---|
46
口口口口 |①---|
①②口口 |②---|
③④口口 |③---|
口口口口 |④---|
47
③口口④ |①---|
口口①② |②---|
③口口④ |③---|
口口①② |④---|

BPM: 159
48
口口口口 |①---|
①②口口 |②---|
③④口口 |③---|
口口口口 |④---|
49
③口口④ |①---|
口口②② |②---|
③口口④ |③---|
口口①① |④---|
50
口⑤⑥口 |①-②-|
①②③④ |③-④-|
口口口口 |⑤---|
口口口口 |⑥---|

BPM: 160
51
口⑤⑥口 |①-②-|
①②③④ |③-④-|
口口口口 |⑤---|
口口口口 |⑥---|
52
口口口口 |①-②-|
口口口口 |③-④-|
口⑤⑥口 |⑤---|
①②③④ |⑥---|
53
口口口口 |①-②-|
口口口口 |③-④-|
口⑤⑥口 |⑤---|
①②③④ |⑥---|
54
口口口口 |①-②-|
口口口口 |③-④-|
口⑤⑥口 |⑤---|
①②③④ |⑥---|
55
口口口口 |①-②-|
口口口口 |③-④-|
口⑤⑥口 |⑤---|
①②③④ |⑥---|
56
①口口② |①---|
③口口④ |②---|
口口口口 |③---|
口口口口 |④---|
57
④口口⑤ |①---|
口③③口 |②---|
①口口② |③-④-|
口口口口 |⑤---|
58
口口口口 |①---|
口口口口 |②---|
③口口④ |③---|
①口口② |④---|
59
口③③口 |①---|
④②②⑤ |②---|
口①①口 |③-④-|
口口口口 |⑤---|
60
①②口口 |①---|
口口口口 |②---|
口口口口 |③---|
口口④③ |④---|
61
口口口口 |①---|
③②①口 |②---|
口①②③ |③---|
口口口口 |----|

BPM: 155
62
口口口口 |----|
口口口口 |----|
口口口口 |----|
口口口口 |----|
63
口口口口 |----|
口口口口 |----|
口口口口 |----|
口口口口 |----|
64
口口口口 |----|
口口口口 |----|
口口口口 |----|
口口口口 |----|
65
口口口口 |----|
口口口口 |----|
口口口口 |----|
口口口口 |----|
66
口口口口 |----|
口口口口 |----|
口口口口 |----|
口口口口 |----|
67
口口口口 |----|
口口口口 |----|
口口口口 |----|
口口口口 |----|
68
口口口口 |----|
口口口口 |----|
口口口口 |----|
口口口口 |----|

BPM: 177
69
口口口口 |①---|
①②口口 |②---|
③④口口 |③---|
口口口口 |④---|

BPM: 179
70
③口口④ |①---|
口口②② |②---|
③口口④ |③---|
口口①① |④---|

BPM: 184
71
口口口口 |①---|
①②口口 |②---|
③④口口 |③---|
口口口口 |④---|

BPM: 188
72
③口口④ |①---|
口口②② |②---|
③口口④ |③---|
口口①① |④---|

BPM: 192
73
口口口口 |①---|
①②口口 |②---|
③④口口 |③---|
口口口口 |④---|
74
③口口④ |①---|
口口②② |②---|
③口口④ |③---|
口口①① |④---|
75
口口口口 |①---|
①②口口 |②---|
③④口口 |③---|
口口口口 |④---|
76
③口口④ |①---|
口口②② |②---|
③口口④ |③---|
口口①① |④---|

BPM: 175
77
口口口口 |----|
口口口口 |----|
口口口口 |----|
口口口口 |----|

BPM: 187.6
78
口口口口 |①---|
①②口口 |②---|
③④口口 |③---|
口口口口 |④---|
79
③口口④ |①---|
口口②② |②---|
③口口④ |③---|
口口①① |④---|

不确定度: 0

最終更新:2012年11月15日 17:44