BLUE STRAGGLER
L.E.D.

EXTREME

Level: 10
BPM: 160
Notes: 780

1
口口口口 |----|
口口口口 |----|
口口口口 |----|
口口口口 |----|
2
口口口口 |①---|
口①①① |----|
①①①口 |----|
口口口口 |----|
3
②④口① |①-②-|
口⑧口③ |③-④-|
①③口⑤ |⑤-⑥-|
⑥口口⑦ |⑦-⑧-|
4
⑧口口① |①-②-|
④口口③ |③-④-|
口⑥口⑤ |⑤-⑥-|
口②口⑦ |⑦-⑧-|
5
⑧口口① |①-②-|
③④口③ |③-④-|
口口口⑤ |⑤-⑥-|
②⑥口⑦ |⑦-⑧-|
6
口④口① |①-②-|
口⑧口③ |③-④-|
⑥口口⑤ |⑤-⑥-|
②口⑧⑦ |⑦-⑧-|
7
⑥口口① |①-②-|
②口口③ |③-④-|
口⑧口⑤ |⑤-⑥-|
③④口⑦ |⑦-⑧-|
8
⑥②口① |①-②-|
口口口③ |③-④-|
④⑧口⑤ |⑤-⑥-|
口口口⑦ |⑦-⑧-|
9
⑧⑧口① |①-②-|
③④口③ |③-④-|
⑥⑥口⑤ |⑤-⑥-|
②口⑧⑦ |⑦-⑧-|
10
⑧口⑧口 |-①②-|
④④①⑤ |③-④⑤|
⑦⑨③⑦ |-⑥⑦-|
②②⑨⑥ |⑧-⑨-|
11
⑦①口① |①--②|
⑧口⑥③ |③-④-|
⑨口②⑤ |⑤⑥--|
⑩④口⑦ |⑦⑧⑨⑩|
12
口②口① |①②--|
口④口③ |③--④|
口③口口
口口口口

口⑨口口
口口口口
口口⑧⑤ |⑤-⑥-|
口⑥口⑦ |⑦⑧-⑨|
13
①⑦口① |①--②|
④⑧口③ |③-④-|
②⑨口⑤ |⑤⑥--|
⑥⑩口⑦ |⑦⑧⑨⑩|
14
②⑨口① |①②--|
④口口③ |③--④|
口⑧③⑤ |⑤-⑥-|
口口⑥⑦ |⑦⑧-⑨|
15
①口口① |①--②|
④口②③ |③-④-|
口⑧⑥⑤ |⑤⑥--|
口⑦口⑦ |⑦-⑧-|
16
②⑧口① |①②-③|
口⑨⑦④ |④-⑤-|
③⑩口⑥ |⑥⑦--|
口⑪⑤⑧ |⑧⑨⑩⑪|
17
②口口① |①②--|
④⑥口③ |③--④|
③口口⑤ |⑤⑥--|
⑦⑧⑧⑦ |⑦-⑧-|
18
①口③① |-①--|
口口口③ |②--③|
口②②口
口口口口

⑦口口口
⑧口⑦口
④口口④ |-④⑤-|
⑤口⑥⑤ |⑥-⑦⑧|
19
口①⑨口 |①②③④|
口②⑩⑤ |⑤-⑥-|
⑥③⑪⑦ |⑦⑧--|
⑧④⑫⑨ |⑨⑩⑪⑫|
20
口②口① |①②--|
口④口③ |③--④|
口③口口
口口口口

口⑨口口
口口口口
口口⑧⑤ |⑤-⑥-|
口⑥口⑦ |⑦⑧-⑨|
21
①⑦口① |①--②|
④⑧口③ |③-④-|
②⑨口⑤ |⑤⑥--|
⑥⑩口⑦ |⑦⑧⑨⑩|
22
②⑨口① |①②--|
④口口③ |③--④|
口⑧③⑤ |⑤-⑥-|
口口⑥⑦ |⑦⑧-⑨|
23
①口口① |①--②|
④口②③ |③-④-|
口⑧⑥⑤ |⑤⑥--|
口⑦口⑦ |⑦-⑧-|
24
②口⑩① |①②-③|
⑤口⑪④ |④-⑤-|
③⑨⑫⑥ |⑥⑦--|
⑦⑧⑬⑧ |⑧-⑨-⑩⑪⑫⑬|
25
②③口① |①②③-|
⑥⑤口④ |④-⑤⑥|
④⑨口⑦ |⑦⑧⑨-|
⑧⑪⑫⑩ |⑩-⑪⑫|
26
②口②口 |-①--|
口口口③ |②--③|
①③①口
口口口口

口口口口
④⑤④口
⑦口口⑥ |--④⑤|
⑨口口⑧ |⑥⑦⑧⑨|
27
⑦①口① |①--②|
⑧口⑥③ |③-④-|
⑨口②⑤ |⑤⑥--|
⑩④口⑦ |⑦⑧⑨⑩|
28
口②口① |①②--|
口④口③ |③--④|
口③口口
口口口口

口⑨口口
口口口口
口口⑧⑤ |⑤-⑥-|
口⑥口⑦ |⑦⑧-⑨|
29
①⑦口① |①--②|
④⑧口③ |③-④-|
②⑨口⑤ |⑤⑥--|
⑥⑩口⑦ |⑦⑧⑨⑩|
30
②口口① |①②--|
④口口③ |③--④|
⑨⑧③⑤ |⑤-⑥-|
口口⑥⑦ |⑦⑧-⑨|
31
①②口① |①-②③|
③⑤⑤④ |④-⑤-|
口⑧⑦⑥ |⑥⑦⑧-|
⑫⑪⑩⑨ |⑨⑩⑪⑫|
32
口②①口 |①-②-|
口④③口 |③-④-|
口⑥⑤口 |⑤-⑥-|
口⑧⑦口 |⑦-⑧-|
33
②⑩⑨① |①②③④|
④⑫⑪③ |⑤⑥⑦⑧|
⑥⑭⑬⑤ |⑨⑩⑪⑫|
⑧⑯⑮⑦ |⑬⑭⑮⑯|
34
②口口② |-①--|
口口口口 |②--③|
①口口①
③口口③

口⑤口口
④口⑤④
⑥口口口 |--④-|
口⑥口口 |-⑤-⑥|
35
口口⑤⑪ |①②③-|
⑥⑦⑧⑨ |④⑤-⑥|
⑫①②③ |⑦⑧⑨-|
口口④⑩ |⑩⑪-⑫|
36
口口⑤口 |①②③-|
⑥口口口 |④⑤-⑥|
口①②③
口口④口

口口口⑪
口⑦⑧⑨
口口口⑫ |⑦⑧⑨-|
口口口⑩ |⑩⑪-⑫|
37
口口⑤口 |①②③-|
口口口⑥ |④⑤-⑥|
③②①口
口口④口

口口口⑪
⑨⑧⑦口
⑫口口口 |⑦⑧⑨-|
口口口⑩ |⑩⑪-⑫|
38
口口⑤⑪ |①②③-|
⑥⑦⑧⑨ |④⑤-⑥|
⑫①②③ |⑦⑧⑨-|
口口④⑩ |⑩⑪-⑫|
39
口口⑤⑪ |①②③-|
⑥⑦⑧⑨ |④⑤-⑥|
⑫①②③ |⑦⑧⑨-|
口口④⑩ |⑩⑪-⑫|
40
口口⑤口 |①②③-|
⑥口口口 |④⑤-⑥|
口①②③
口口④口

口口口⑪
口⑦⑧⑨
口口口⑫ |⑦⑧⑨-|
口口口⑩ |⑩⑪-⑫|
41
口口⑤口 |①②③-|
口口口⑥ |④⑤-⑥|
③②①口
口口④口

口口口⑪
⑨⑧⑦口
⑫口口口 |⑦⑧⑨-|
口口口⑩ |⑩⑪-⑫|
42
口口⑤⑪ |①②③-|
⑥⑦⑧⑨ |④⑤-⑥|
口①②③ |⑦⑧⑨-|
口口④⑩ |⑩⑪--|
43
⑥⑦口口 |①-②-|
③⑤口口 |-③--|
口口①① |④--⑤|
②④口口 |--⑥⑦|
44
口口口口 |--①-|
②④口口 |-②--|
⑤⑥口口 |③--④|
①③口口 |--⑤⑥|
45
③⑤口口 |①-②-|
⑥口①① |-③--|
口口口口 |④--⑤|
②④口口 |--⑥-|
46
③口口口 |①-②-|
口口口口 |-③--|
口口口口
②口①①

口⑥⑧⑦
⑧口⑨⑤
口口⑩④ |④-⑤⑥|
口④⑪口 |⑦---⑧⑨⑩⑪|
47
②④口口 |-①--|
⑥⑦口口 |②--③|
③①口口 |--④-|
口⑤口口 |⑤-⑥⑦|
48
②④口口 |--①-|
⑤⑥口口 |-②--|
口口口口 |③--④|
①③口口 |--⑤⑥|
49
②④口口 |①-②-|
⑥⑦口口 |-③--|
③⑤①① |④--⑤|
口口口口 |--⑥⑦|
50
③口口口 |①-②-|
口口口口 |-③--|
口口①①
②口口口

口⑤⑦口
口口⑧口
口口⑨口 |④--⑤|
口④⑩⑥ |⑥---⑦⑧⑨⑩|
51
⑥⑦口① |①-②-|
③⑤口口 |-③--|
口口口口 |④--⑤|
②④口口 |--⑥⑦|
52
⑤⑥口口 |--①-|
②④口口 |-②--|
口口口口 |③--④|
①③口口 |--⑤⑥|
53
口口口口 |①-②-|
⑧⑦口口 |③-④-|
⑥②⑤① |⑤-⑥-|
④口口③ |⑦-⑧-|
54
口口②① |①②③④|
口口④③ |⑤⑥⑦⑧|
口③⑥⑤
口⑥⑧⑦

⑩⑨⑭⑬
⑫⑪⑯⑮
⑨⑮口口 |⑨⑩⑪⑫|
⑫口口口 |⑬⑭⑮⑯|
55
口口口口 |①---|
口口口口 |----|
口口口① |----|
口口口口 |----|
56
④口口⑦ |①②③④|
口⑥①③ |⑤⑥⑦⑧|
②口口口
口⑧⑤口

口⑯口口
⑩口⑬口
⑭⑫⑮⑨ |⑨⑩⑪⑫|
口口口⑪ |⑬⑭⑮⑯|
57
④⑦口④ |①-②-|
③②口① |-③--|
口口口口 |④--⑤|
⑥⑤①口 |--⑥⑦|
58
口⑥③② |--①-|
口口①④ |-②--|
口口②③ |③--④|
⑤口④① |--⑤⑥|
59
口口口② |--①-|
口口①口 |-②--|
口口②口
口口口①

口口③口
口口⑤④
口口口③ |③--④|
口口④⑤ |--⑤-|
60
口口⑦④ |--①-|
②①④⑤ |-②--|
口口⑤③ |③-④-|
①②③⑥ |⑤-⑥⑦|
61
口口口口 |--①-|
①②口口 |-②-③|
②①口口
③③口口

口口⑧④
⑦口④⑧
口⑦⑥⑤ |④-⑤-|
口口⑤⑥ |⑥-⑦⑧|
62
口①口口 |--①-|
口②口口 |-②--|
①口口口
②口口口

口⑥口口
口口③④
口口口口 |③--④|
口⑤④③ |--⑤⑥|
63
①⑥⑥③ |--①-|
口②④口 |-②--|
口①③口 |③--④|
②⑤⑤④ |--⑤⑥|
64
②⑦⑦④ |--①-|
口①③⑤ |-②--|
口②④口 |③--④|
①⑥⑥③ |⑤-⑥⑦|
65
④⑦口④ |①-②-|
③②口口 |-③--|
口口口① |④--⑤|
⑥⑤口口 |--⑥⑦|
66
口⑥③② |--①-|
口口①④ |-②--|
口口②③ |③--④|
⑤口④① |--⑤⑥|
67
口口口③ |①-②-|
①①②口 |-③--|
口口③口
口口口②

口口④口
口口⑥⑤
口口口④ |④--⑤|
口口⑤⑥ |--⑥-|
68
口口⑦④ |--①-|
②①④⑤ |-②--|
⑤⑤⑤③ |③-④-|
①②③⑥ |⑤-⑥⑦|
69
①①口⑩ |①-②③|
⑥③⑧⑪ |④⑤⑥⑦|
⑫⑨口④ |⑧-⑨-|
⑦②⑤口 |⑩-⑪⑫|
70
②口④口 |①-②-|
⑤口口口 |③④⑤-|
口口①①
口口③口

口口口⑧
口口⑥⑨
口⑩口⑪ |⑥-⑦⑧|
⑦口口口 |⑨-⑩⑪|
71
⑥①③口 |①②③④|
口②⑦口 |⑤⑥⑦⑧|
④口①口
口⑧⑤口

口⑭口⑨
⑩⑯口⑨
口⑫⑮⑬ |⑨⑩⑪⑫|
⑨口口⑪ |⑬⑭⑮⑯|
72
③口①⑥ |--①②|
③⑨①⑥ |-③④⑤|
②⑤口⑧ |⑥--⑦|
⑦⑦④⑧ |--⑧⑨|


不确定度: 0

タグ:

+ タグ編集
  • タグ:

このサイトはreCAPTCHAによって保護されており、Googleの プライバシーポリシー利用規約 が適用されます。

最終更新:2012年12月18日 01:42