Supercalifragilisticexpialidocious

EXTREME

Level: 9
BPM: 149-192
Notes: 759

BPM: 149.3
1
口口口口 |----|
口口口口 |----|
口口口口 |----|
口口口口 |----|
2
②④④② |①-②-|
⑤口口⑧ |③-④-|
口⑥⑦口 |⑤-⑥-|
①③③① |⑦-⑧-|
3
②④④② |①-②-|
口⑤⑥口 |③-④-|
⑤口口⑥ |⑤---|
①③③① |⑥---|

BPM: 151
4
②④⑧⑥ |①-②-|
口口口口 |③-④-|
口口口口 |⑤-⑥-|
①③⑦⑤ |⑦-⑧-|
5
⑥⑥⑥⑥ |①-②-|
口③④口 |③-④-|
⑤①②⑤ |⑤---|
⑤口口⑤ |⑥---|

BPM: 153
6
口口口口 |①-②-|
③②⑥⑦ |③-④-|
④①⑤⑧ |⑤-⑥-|
口口口口 |⑦-⑧-|
7
②④④② |①-②-|
口⑤⑥口 |③-④-|
⑤口口⑥ |⑤---|
①③③① |⑥---|

BPM: 152
8
②④④② |①-②-|
⑤口口⑧ |③-④-|
口⑥⑦口 |⑤-⑥-|
①③③① |⑦-⑧-|

BPM: 151
9
②④④② |①-②-|
口⑤⑥口 |③-④-|
⑤口口⑥ |⑤---|
①③③① |⑥---|
10
②⑧⑧③ |①-②③|
④⑨口⑤ |④⑤⑥⑦|
口⑥⑦口 |⑧-⑨⑩|
⑪①①⑩ |⑪---|
11
②⑧⑧③ |①-②③|
④⑨口⑤ |④⑤⑥⑦|
口⑥⑦口 |⑧-⑨⑩|
⑪①①⑩ |⑪---|
12
②⑧⑧③ |①-②③|
④⑨口⑤ |④⑤⑥⑦|
口⑥⑦口 |⑧-⑨⑩|
⑪①①⑩ |⑪---|

BPM: 152
13
②口口③ |①-②③|
④口口⑤ |④⑤⑥⑦|
口⑥⑦口
口①①口

口⑧⑧口
口⑨⑫口
口口口口 |⑧-⑨⑩|
口⑪⑩口 |⑪-⑫-|
14
④口口⑧ |①-②-|
③口口⑦ |③-④-|
②口口⑥ |⑤-⑥-|
①口口⑤ |⑦-⑧-|
15
口口口口 |①-②-|
口口口口 |③-④-|
口③④口
口①②口

口⑤⑤口
口口口口
口口口口 |⑤---|
口⑥口口 |--⑥-|
16
④口口⑧ |①-②-|
③口口⑦ |③-④-|
②口口⑥ |⑤-⑥-|
①口口⑤ |⑦-⑧-|
17
口②④口 |①-②-|
口口口口 |③-④-|
口口口口
口①③口

口口口口
⑤口口⑤
口口口口 |⑤---|
口⑥口口 |--⑥-|
18
④口口⑧ |①-②-|
③口口⑦ |③-④-|
②口口⑥ |⑤-⑥-|
①口口⑤ |⑦-⑧-|
19
口③④口 |①-②-|
口④③口 |③-④-|
口①②口
口②①口

口口口口
⑤口口⑤
⑤口口⑤ |⑤---|
⑥⑥口口 |--⑥-|

BPM: 152.5
20
⑦⑦③③ |①②-③|
口⑥②口 |--④-|
口①⑤口 |⑤⑥-⑦|
口⑧④④ |--⑧-|
21
口口口④ |①-②-|
③⑤⑥⑥ |③-④-|
⑥⑥⑤② |⑤---|
①口口口 |⑥---|

BPM: 155-160
22
②④④② |①-②-|
⑤口口⑧ |③-④-|
口⑥⑦口 |⑤-⑥-|
①③③① |⑦-⑧-|

BPM: 161
23
②④④② |①-②-|
口⑤⑥口 |③-④-|
⑤口口⑥ |⑤---|
①③③① |⑥---|
24
②④⑧⑥ |①-②-|
口口口口 |③-④-|
口口口口 |⑤-⑥-|
①③⑦⑤ |⑦-⑧-|
25
⑥⑥⑥⑥ |①-②-|
口③④口 |③-④-|
⑤①②⑤ |⑤---|
⑤口口⑤ |⑥---|

BPM: 159
26
口口口口 |①-②-|
③②⑥⑦ |③-④-|
④①⑤⑧ |⑤-⑥-|
口口口口 |⑦-⑧-|

BPM: 157
27
②④④② |①-②-|
口⑤⑥口 |③-④-|
⑤口口⑥ |⑤---|
①③③① |⑥---|

BPM: 159
28
②④④② |①-②-|
⑤口口⑧ |③-④-|
口⑥⑦口 |⑤-⑥-|
①③③① |⑦-⑧-|

BPM: 160
29
②④④② |①-②-|
口⑤⑥口 |③-④-|
⑤口口⑥ |⑤---|
①③③① |⑥---|
30
②⑧⑧③ |①-②③|
④⑨口⑤ |④⑤⑥⑦|
口⑥⑦口 |⑧-⑨⑩|
⑪①①⑩ |⑪---|

BPM: 161
31
②⑧⑧③ |①-②③|
④⑨口⑤ |④⑤⑥⑦|
口⑥⑦口 |⑧-⑨⑩|
⑪①①⑩ |⑪---|

BPM: 162
32
②⑧⑧③ |①-②③|
④⑨口⑤ |④⑤⑥⑦|
口⑥⑦口 |⑧-⑨⑩|
⑪①①⑩ |⑪---|
33
②⑧⑧③ |①-②③|
④⑨口⑤ |④⑤⑥⑦|
口⑥⑦⑫ |⑧-⑨⑩|
⑪①①⑩ |⑪-⑫-|

BPM: 160
34
⑤⑥⑦⑧ |①-②③|
①口口④ |-④--|
口口口口 |⑤-⑥-|
口②③口 |⑦-⑧-|
35
口口口口 |①-②-|
口口口口 |③-④-|
口③④口
口①②口

口口口口
⑤口口⑤
口口口口 |⑤---|
口⑥口口 |--⑥-|
36
④口口⑧ |①-②-|
③口口⑦ |③-④-|
②口口⑥ |⑤-⑥-|
①口口⑤ |⑦-⑧-|
37
口①②口 |①-②-|
口③④口 |③-④-|
口⑤⑤口 |⑤---|
口⑥口口 |--⑥-|
38
④口口⑧ |①-②-|
③口口⑦ |③-④-|
②口口⑥ |⑤-⑥-|
①口口⑤ |⑦-⑧-|
39
口口口口 |①---|
口口口口 |②---|
口②①口
口①②口

口口口口
③③③③
口口口口 |③---|
口④口口 |--④-|
40
④口口⑧ |①-②-|
③口口⑦ |③-④-|
②口口⑥ |⑤-⑥-|
①口口⑤ |⑦-⑧-|
41
口①②口 |①②③④|
⑨③④⑨ |⑤⑥⑦⑧|
口⑤⑥口 |⑨---|
口⑦⑧口 |----|
42
②④④② |①-②-|
⑤口口⑧ |③-④-|
口⑥⑦口 |⑤-⑥-|
①③③① |⑦-⑧-|
43
②④④② |①-②-|
口⑤⑥口 |③-④-|
⑤口口⑥ |⑤---|
①③③① |⑥---|
44
②④⑧⑥ |①-②-|
口口口口 |③-④-|
口口口口 |⑤-⑥-|
①③⑦⑤ |⑦-⑧-|

BPM: 161
45
⑥⑥⑥⑥ |①-②-|
口③④口 |③-④-|
⑤①②⑤ |⑤---|
⑤口口⑤ |⑥---|
46
口口口口 |①-②-|
③②⑥⑦ |③-④-|
④①⑤⑧ |⑤-⑥-|
口口口口 |⑦-⑧-|
47
②④④② |①-②-|
口⑤⑥口 |③-④-|
⑤口口⑥ |⑤---|
①③③① |⑥---|

BPM: 159
48
②④④② |①-②-|
⑤口口⑧ |③-④-|
口⑥⑦口 |⑤-⑥-|
①③③① |⑦-⑧-|
49
②④④② |①-②-|
口⑤⑥口 |③-④-|
⑤口口⑥ |⑤---|
①③③① |⑥---|
50
②⑧⑧③ |①-②③|
④⑨口⑤ |④⑤⑥⑦|
口⑥⑦口 |⑧-⑨⑩|
⑪①①⑩ |⑪---|

BPM: 160
51
②⑧⑧③ |①-②③|
④⑨口⑤ |④⑤⑥⑦|
口⑥⑦⑫ |⑧-⑨⑩|
⑪①①⑩ |⑪-⑫-|
52
①口口② |①-②-|
③口口④ |③-④-|
⑤口口⑥ |⑤-⑥-|
⑦口口⑧ |⑦-⑧-|
53
口①②口 |①-②-|
口③④口 |③-④-|
口⑤⑥口 |⑤-⑥-|
口⑦⑧口 |⑦-⑧-|
54
⑦口口⑧ |①-②-|
⑤口口⑥ |③-④-|
③口口④ |⑤-⑥-|
①口口② |⑦-⑧-|
55
口①②口 |①-②-|
口③④口 |③-④-|
口⑤⑥口 |⑤-⑥-|
⑧⑦⑧口 |⑦-⑧-|
56
②口①② |①-②-|
④口③④ |③-④-|
⑥口⑤⑥ |⑤-⑥-|
⑧口⑦⑧ |⑦-⑧-|
57
②口①② |①-②-|
④口③④ |③-④-|
口口口口
口口口口

⑧口口口
口口口口
⑤⑥⑦⑤ |⑤-⑥-|
口⑥⑦口 |⑦-⑧-|
58
口②③① |①-②③|
口④④口 |-④--|
⑥口口⑧ |⑤-⑥-|
⑤口口⑦ |⑦-⑧-|
59
口口口口 |①-②③|
④口口④ |-④--|
口①①口
口②③口

⑥口口⑦
口⑤⑤口
口口口口 |⑤-⑥-|
口⑧口口 |⑦-⑧-|
60
④口口⑧ |①-②-|
③口口⑦ |③-④-|
②口口⑥ |⑤-⑥-|
①口口⑤ |⑦-⑧-|
61
口②②口 |①-②-|
⑤⑤⑤⑤ |③-④-|
④④④④ |⑤---|
③①①③ |----|

BPM: 155
62
口口口口 |----|
口口口口 |----|
口口口口 |----|
口口口口 |----|
63
口口口口 |----|
口口口口 |----|
口口口口 |----|
口口口口 |----|
64
口口口口 |----|
口口口口 |----|
口口口口 |----|
口口口口 |----|
65
口口口口 |----|
口口口口 |----|
口口口口 |----|
口口口口 |----|
66
口口口口 |----|
口口口口 |----|
口口口口 |----|
口口口口 |----|
67
口口口口 |----|
口口口口 |----|
口口口口 |----|
口口口口 |----|
68
口口口口 |----|
口口口口 |----|
口口口口 |----|
口口口口 |----|

BPM: 177
69
②④④② |①-②-|
⑤口口⑧ |③-④-|
口⑥⑦口 |⑤-⑥-|
①③③① |⑦-⑧-|

BPM: 179
70
②④④② |①-②-|
口⑤⑥口 |③-④-|
⑤口口⑥ |⑤---|
①③③① |⑥---|

BPM: 184
71
②④④② |①-②-|
⑤口口⑧ |③-④-|
口⑥⑦口 |⑤-⑥-|
①③③① |⑦-⑧-|

BPM: 188
72
②④④② |①-②-|
口⑤⑥口 |③-④-|
⑤口口⑥ |⑤---|
①③③① |⑥---|

BPM: 192
73
②④④② |①-②-|
⑤口口⑧ |③-④-|
口⑥⑦口 |⑤-⑥-|
①③③① |⑦-⑧-|
74
②④④② |①-②-|
口⑤⑥口 |③-④-|
⑤口口⑥ |⑤---|
①③③① |⑥---|
75
②④④② |①-②-|
⑤口口⑧ |③-④-|
口⑥⑦口 |⑤-⑥-|
①③③① |⑦-⑧-|
76
②④④② |①-②-|
口⑤⑥口 |③-④-|
⑤口口⑥ |⑤---|
①③③① |⑥---|

BPM: 175
77
口口口口 |----|
口③④口 |----|
口①②口 |----|
口口口口 |①②③④|

BPM: 187
78
②④④② |①-②-|
⑤口口⑧ |③-④-|
口⑥⑦口 |⑤-⑥-|
①③③① |⑦-⑧-|
79
②④④② |①-②-|
口⑤⑥口 |③-④-|
⑤口口⑥ |⑤---|
①③③① |⑥---|

不确定度: 0

最終更新:2012年11月15日 17:44