大迷惑
UNICORN

EXTREME

Level: 8
BPM: 188
Notes: 521

1
口口口口 |----|
口口口口 |----|
口口口口 |----|
口口口口 |----|
2
①②口口 |①-②-|
③④口口 |③-④-|
⑤⑥口口 |⑤-⑥-|
⑦⑧口口 |⑦-⑧-|
3
①②口口 |①-②-|
③④口口 |③-④-|
⑤⑥口口 |⑤-⑥-|
⑦⑧口口 |⑦-⑧-|
4
①②口口 |①-②-|
③④口口 |③-④-|
⑤⑥口口 |⑤-⑥-|
⑦⑧口口 |⑦-⑧-|
5
①②①口 |①-②-|
③④③口 |③-④-|
⑤⑥⑤口 |⑤-⑥-|
⑦⑧⑦口 |⑦-⑧-|
6
口①②口 |①-②-|
口③④口 |③-④-|
口⑤⑥口 |⑤-⑥-|
口⑦⑧口 |⑦-⑧-|
7
口①②口 |①-②-|
口③④口 |③-④-|
⑤⑤⑥⑥ |⑤-⑥-|
口⑦⑧⑧ |⑦-⑧-|
8
口①②口 |①-②-|
③③④口 |③-④-|
⑤⑤⑥口 |⑤-⑥-|
口⑦⑧口 |⑦-⑧-|
9
口①②口 |①-②-|
口③④④ |③-④-|
⑤⑤⑥口 |⑤-⑥-|
⑦⑦⑧⑧ |⑦-⑧-|
10
口①②口 |①-②-|
口③④口 |③-④-|
口⑤⑥口 |⑤-⑥-|
⑦⑦⑧口 |⑦-⑧-|
11
口①②口 |①-②-|
口③④口 |③-④-|
⑤⑤⑥⑥ |⑤-⑥-|
口⑦⑧⑧ |⑦-⑧-|
12
口①②② |①-②-|
③③④口 |③-④-|
口⑤⑥口 |⑤-⑥-|
口⑦⑧口 |⑦-⑧-|
13
口①②口 |①-②-|
口③④口 |③-④-|
⑥⑤⑦⑧ |⑤⑥⑦⑧|
口⑨⑩口 |⑨-⑩-|
14
①口口① |①---|
②口口② |②--③|
口③④口 |④-⑤-|
⑤⑥⑦口 |⑥-⑦-|
15
口口口口 |①-②-|
④口口③ |③-④-|
②口口① |----|
口口口口 |----|
16
口口口口 |①---|
口口口口 |----|
口②③口 |----|
②①①③ |②-③-|
17
①口口② |①-②-|
口口口口 |----|
③口口④ |③-④-|
口口口口 |----|
18
①②③④ |①-②-|
口口口口 |③-④-|
口⑦⑥⑤ |--⑤-|
口口口口 |⑥-⑦-|
19
口口口口 |①---|
②口口③ |②-③-|
①口口口 |----|
②口口③ |----|
20
①②③口 |①---|
口口④⑤ |②---|
①②③口 |③-④-|
口口口口 |--⑤-|
21
口口口口 |--①-|
口⑤口口 |②-③-|
口④口④ |--④-|
①②③⑤ |⑤---|
22
①口①口 |①---|
②口②口 |②---|
③③③口 |③---|
④④④口 |④---|
23
口口口④ |①-②-|
口口口③ |③-④-|
口口口② |----|
口口口① |----|
24
口口口口 |①---|
①①口口 |----|
②③④口 |--②-|
口口口口 |③-④-|
25
④口口② |①-②-|
口口口口 |----|
口口口口 |③-④-|
③口口① |----|
26
⑥①①口 |①-②-|
口②②口 |③-④-|
口③③口 |--⑤-|
⑤④④口 |--⑥-|
27
口口口④ |①-②-|
口口口③ |③-④-|
口口口② |----|
口口口① |----|
28
①口①② |①---|
①①①② |②---|
①口①② |③-④-|
③④⑤口 |⑤---|
29
口①①口 |①-②-|
②口口③ |③---|
④口口⑤ |--④-|
口口口口 |--⑤-|
30
口口口口 |--①-|
①③④② |②---|
③口口④ |③---|
口③④口 |④---|
31
口口口口 |①---|
口口口口 |----|
口①②口 |----|
口口口口 |②---|
32
②口①③ |①-②-|
④口口⑤ |③-④-|
⑥口⑦⑧ |⑤-⑥⑦|
⑨口口口 |⑧-⑨-|
33
口口⑤口 |①---|
口口口口 |②---|
口③④口 |③-④-|
口②口① |--⑤-|
34
①②口③ |--①②|
④⑤口⑥ |③-④⑤|
⑦⑧口⑨ |⑥-⑦⑧|
⑩⑪⑫口 |⑨⑩⑪⑫|
35
口口口口 |①---|
口口口口 |----|
②口口口 |----|
口口口① |②---|
36
②口口③ |①-②-|
④①口⑤ |③-④-|
⑥口⑦⑧ |⑤-⑥⑦|
⑨口口口 |⑧-⑨-|
37
口口口口 |①---|
口③④口 |②---|
口口口口 |③-④-|
口②⑤① |--⑤-|
38
①口口② |①-②-|
③口口④ |③-④-|
⑤口口⑥ |⑤-⑥-|
⑦口口⑧ |⑦-⑧-|
39
口口口口 |①---|
口①①口 |----|
口口口口 |----|
口②口口 |②---|
40
②口口③ |①-②-|
④口口⑤ |③-④-|
⑥①⑦⑧ |⑤-⑥⑦|
⑨口口口 |⑧-⑨-|
41
口口口口 |①---|
口③④口 |②---|
口口口口 |③-④-|
口②⑤① |--⑤-|
42
①②口③ |--①②|
④⑤口⑥ |③-④⑤|
⑦⑧口⑨ |⑥-⑦⑧|
⑩⑪⑫口 |⑨⑩⑪⑫|
43
口口口口 |①---|
口口口口 |----|
②口口口 |----|
口口口① |②---|
44
②口口③ |①-②-|
④①口⑤ |③-④-|
⑥口⑦⑧ |⑤-⑥⑦|
⑨口口口 |⑧-⑨-|
45
①①①口 |①---|
③③④口 |②---|
口⑤⑥口 |③-④-|
口②口口 |⑤-⑥-|
46
②①口③ |①---|
②口口③ |----|
④口口⑤ |②-③-|
④口口⑤ |④-⑤-|
47
口①①口 |①---|
口口口口 |②-③-|
口②③口 |④-⑤-|
口④⑤口 |----|
48
①②⑨⑩ |①②③④|
③④⑪⑫ |⑤⑥⑦⑧|
⑤⑥⑬⑭ |⑨⑩⑪⑫|
⑦⑧⑮⑯ |⑬⑭⑮⑯|
49
①②口口 |--①-|
口③④⑦ |②-③-|
口口⑤⑥ |④-⑤-|
口口口口 |⑥-⑦-|
50
②④④② |①-②-|
⑥口口⑦ |③-④-|
口⑤⑤口 |⑤-⑥-|
①③③① |⑦---|
51
口口②① |--①-|
⑦④③口 |②-③-|
⑥⑤口口 |④-⑤-|
口口口口 |⑥-⑦-|
52
②④④② |①-②-|
⑦口口⑥ |③-④-|
口⑤⑤口 |⑤-⑥-|
①③③① |⑦---|
53
⑤④口口 |--①-|
⑥③口口 |②-③-|
②口口口 |④-⑤-|
①①⑦⑦ |⑥-⑦-|
54
口口③④ |①-②-|
口口②⑤ |③-④-|
口⑥⑥① |⑤---|
口口口口 |⑥---|
55
②④④② |--①-|
⑥⑦⑦⑥ |②-③-|
⑤口口⑤ |④-⑤-|
①③③① |⑥-⑦-|
56
②口口② |①---|
口口口口 |②---|
口口口口
①口口①

口口口口
口口口口
④⑤⑤④ |③-④-|
⑥③③⑥ |⑤-⑥-|
57
①②口口 |--①-|
口③④⑦ |②-③-|
口口⑤⑥ |④-⑤-|
口口口口 |⑥-⑦-|
58
②④④② |①-②-|
⑥口口⑦ |③-④-|
口⑤⑤口 |⑤-⑥-|
①③③① |⑦---|
59
口口②① |--①-|
⑦④③口 |②-③-|
⑥⑤口口 |④-⑤-|
口口口口 |⑥-⑦-|
60
②④④② |①-②-|
⑦口口⑥ |③-④-|
口⑤⑤口 |⑤-⑥-|
①③③① |⑦---|
61
①②口口 |--①-|
口③④口 |②-③-|
口口⑤⑥ |④-⑤-|
口口口⑦ |⑥-⑦-|
62
口口口口 |①-②-|
①口口口 |③-④-|
②③口口 |⑤-⑥-|
⑥④⑤口 |----|
63
⑦⑥⑤④ |--①-|
口①②③ |②-③-|
口口口口 |④-⑤-|
口口口口 |⑥-⑦-|
64
④④④④ |①---|
③③③③ |②---|
②②②② |③---|
①①①① |④---|
65
口口口口 |①---|
口口口口 |----|
口口口口 |----|
①①①① |----|


不确定度: 0

最終更新:2013年03月23日 16:17