大都会交響楽
PIZZICATO FIVE

ADVANCED

Level: 6
BPM: 171
Notes: 465

1
口口口口 |----|
口口口口 |----|
口口口口 |----|
口口口口 |----|
2
口口口口 |①---|
口①①口 |--②-|
口③③口 |----|
口②②口 |③---|
3
口①①口 |--①-|
③口口③ |----|
②口口② |②---|
口口口口 |③---|
4
口①①口 |①---|
口③③口 |--②-|
口②②口 |----|
口口口口 |③---|
5
①口口① |--①-|
口口口口 |----|
口③③口 |②---|
口②②口 |③---|
6
③口口③ |①---|
①口口① |--②-|
②口口② |----|
口口口口 |③---|
7
口口口口 |--①-|
口①①口 |----|
③口口③ |②---|
②口口② |③---|
8
口①①口 |①---|
口③③口 |--②-|
口口口口 |----|
口②②口 |③---|
9
口口口⑥ |①--②|
③口口⑤ |--③-|
②口口④ |④--⑤|
①口口口 |--⑥-|
10
②口口口 |①-②-|
③①①⑧ |③-④-|
④①①⑦ |⑤-⑥-|
⑤口口⑥ |⑦-⑧-|
11
①口口① |①---|
④口⑤口 |②---|
口口口口 |③---④-|
③②②口 |--⑤---|
12
④口口④ |①---②-|
口③口② |--③---|
口口口口 |④---|
口口口① |----|
13
口口③③ |--①-|
①①口口 |②---|
口口④④ |--③-|
②②口口 |④---|
14
①①口口 |--①-|
口口口口 |②---|
②②口口 |----|
口口口口 |----|
15
口②口① |①---|
口口口口 |②---|
口③⑥口 |③-④-|
口④⑤口 |⑤-⑥-|
16
口①①口 |①-②-|
④②②④ |--③-|
口口口口 |--④-|
③口口③ |----|
17
口口②口 |①---|
④③口口 |②---|
⑤⑥①口 |③-④-|
口口口口 |⑤-⑥-|
18
口口口口 |①-②-|
③口②① |--③-|
口口口口 |----|
口口口口 |----|
19
①口②口 |①---|
口口口口 |②---|
口⑥③口 |③-④-|
口⑤④口 |⑤-⑥-|
20
口①①口 |①-②-|
④②②④ |--③-|
口口口口 |--④-|
③口口③ |----|
21
口口①口 |①---|
口②口口 |②---|
③口④⑤ |③---|
口口口口 |④-⑤-|
22
口口④口 |①-②-|
口口②① |③-④-|
口口口口 |----|
口口③口 |----|
23
口⑤④口 |①---|
口⑥③口 |②---|
口口口口 |③-④-|
①口②口 |⑤-⑥-|
24
口④④口 |①-②-|
口口口口 |--③-|
②③③② |--④-|
①口口① |----|
25
口口口② |①---|
口口口口 |②---|
口⑤④③ |--③-|
①口口口 |④-⑤-|
26
口口口口 |①-②-|
①②③口 |③-④-|
口口口口 |----|
口④④口 |----|
27
①口口② |①---|
口口口口 |②---|
口③⑥口 |③-④-|
口④⑤口 |⑤-⑥-|
28
口①口口 |①-②-|
口②口③ |--③-|
口口口口 |----|
口口口口 |----|
29
口①①口 |①---|
②口口② |--②-|
⑤③③⑤ |--③-|
④口口④ |④-⑤-|
30
口①①口 |①-②-|
口②②口 |--③-|
口口口口 |----|
口③③口 |----|
31
①口②口 |①---|
口口口口 |②---|
口口③⑥ |③-④-|
口口④⑤ |⑤-⑥-|
32
①口口① |①-②-|
②④④② |--③-|
口口口口 |--④-|
口③③口 |----|
33
②④③口 |①---|
口口⑤口 |②---|
①口口口 |③---|
口口口口 |④-⑤-|
34
口口口口 |①-②-|
②口口② |--③-|
口①口口 |----|
口③③口 |----|
35
口③口① |①---|
口④口口 |②---|
口⑤口口 |--③-|
②口口口 |④-⑤-|
36
口口口口 |①-②-|
④④口口 |--③-|
口口①口 |--④-|
③③②口 |----|
37
口口口口 |①---|
口⑤②② |②---|
口④口口 |--③-|
口③①① |④-⑤-|
38
口口①口 |①-②-|
口口②口 |③-④-|
口口③口 |----|
口口④口 |----|
39
口②口① |①---|
口口口口 |②---|
⑥③口口 |③-④-|
⑤④口口 |⑤-⑥-|
40
口①口① |①-②-|
口②④② |--③-|
口口口口 |--④-|
口口③口 |----|
41
①口②口 |①---|
口口口口 |②---|
口⑤③口 |③-④-|
口⑥④口 |⑤-⑥-|
42
口①①口 |①-②-|
口②②口 |--③-|
口口口口
③口口③

口口口口
口口⑥口
口⑤口口 |--④-|
口口④口 |⑤-⑥-|
43
①③口② |①---|
口④口口 |②---|
口口⑥口 |③-④-|
口口⑤口 |⑤-⑥-|
44
口口口口 |①---|
口②①口 |----|
口口③口 |--②-|
口④口口 |③-④-|
45
口①①口 |①---|
口口口口 |②-③-|
③口口③ |----|
②口口② |----|
46
口口口口 |①---|
④口口口 |②---|
③②口口 |③---|
口①口口 |④---|
47
口①口口 |①---|
口口口口 |----|
③口口口 |②---|
口口口② |③---|
48
口②②口 |①---|
口口口① |----|
口③③口 |②---|
口口口口 |③---|
49
口口②口 |①---|
①口口口 |②---|
③口口口 |③-④-|
④口口⑤ |--⑤-|
50
口④口⑤ |①---|
口③口口 |②---|
②口口口 |③-④-|
口①口口 |--⑤-|
51
口口口口 |----|
口口口口 |----|
口口口② |①---|
①口口口 |②---|
52
口口口② |①---|
①口口口 |②---|
口口口口
口口口口

口口口口
④口口口
口口口③ |③---|
口口口口 |④---|
53
口①①口 |①---|
口口口口 |②-③-|
②③④口 |④---|
口口口口 |----|
54
口口口口 |①---|
口口口口 |②---|
口③④口 |③---|
口①②口 |④---|
55
①口口① |①---|
口②③口 |----|
口④⑤口 |②-③-|
口口口口 |④-⑤-|
56
④口口④ |①-②-|
③口口③ |--③-|
口口口口 |--④-|
①口口② |----|
57
口①①口 |①---|
口②②口 |②---|
③口口④ |③-④-|
⑤口口⑥ |⑤-⑥-|
58
口④④口 |①---|
口①①口 |②-③-|
口口口口 |--④-|
口②③口 |----|
59
②口②口 |----|
①口①口 |----|
口口口口 |①---|
口口口口 |②---|
60
口①口① |①---|
口②口② |②---|
④口④口 |③---|
③口③口 |④---|
61
④口④口 |①---|
①口①口 |----|
口③口③ |②-③-|
口②口② |--④-|
62
口口口口 |----|
口口口口 |----|
口口口口 |----|
口口口口 |----|
63
①①口② |①---|
口口口③ |----|
口口口④ |②--③|
口口口口 |--④-|
64
口口⑥口 |①--②|
口③⑤口 |--③-|
口②④口 |④--⑤|
口①口口 |--⑥-|
65
①口口② |①---|
口④⑤口 |②---|
③口口③ |③---|
口口口口 |④-⑤-|
66
口口口口 |①-②-|
口口口口 |--③-|
④②①④ |--④-|
③口口③ |----|
67
③口口④ |①---|
口口口口 |②---|
口②②口 |③-④-|
⑤①①口 |--⑤-|
68
口口口口 |①-②-|
口②②口 |--③-|
口③③口 |----|
口口口① |----|
69
②口口① |①---|
⑥⑤④口 |②---|
口口口口 |③-④-|
口口③口 |⑤-⑥-|
70
④③③④ |①-②-|
口口口口 |--③-|
口口②① |--④-|
口口口口 |----|
71
口口口口 |①---|
③口口③ |②---|
口②②口 |③---|
④①①⑤ |④-⑤-|
72
口口口口 |①-②-|
口②③口 |③-④-|
口①④口 |----|
口口口口 |----|
73
①口口① |①---|
②③③② |②---|
④口口④ |③-④-|
⑤⑥⑥⑤ |⑤-⑥-|
74
④①①④ |①-②-|
②口口② |--③-|
口③③口 |--④-|
口口口口 |----|
75
④口口④ |①---|
③口口③ |②---|
口②②口 |③-④-|
口①①口 |----|
76
口口口口 |①-②-|
口①①口 |③-④-|
④②②④
③口口③

口口口口
口⑥口⑦
口口口口 |--⑤-|
口⑤口口 |⑥-⑦-|
77
①口②口 |①---|
口口口口 |②---|
口③④口 |③-④-|
口⑤⑥口 |⑤-⑥-|
78
口②口口 |①---|
①口③① |----|
口④口口 |--②-|
口口口口 |③-④-|
79
①③③① |①---|
口口口口 |②-③-|
口口口口 |----|
口②②口 |----|


不确定度: 0

最終更新:2013年01月24日 03:43