大都会交響楽
PIZZICATO FIVE

EXTREME

Level: 8
BPM: 171
Notes: 650

1
口口口口 |----|
口口口口 |----|
口口口口 |----|
口口口口 |----|
2
①口口① |①---|
口口口口 |--②-|
口①①口
②口口②

④口口④
口口口口
口口口③ |③---|
口口口口 |④---|
3
口②②口 |①-②-|
④口口④ |----|
③①口③ |③---|
口③③口 |④---|
4
③①①③ |①---|
口②②口 |--②-|
③①①③ |----|
②口口② |③---|
5
口②②口 |①-②-|
⑤口口⑤ |③---|
④①③④ |④---|
口口口口 |⑤---|
6
口口口口 |①---|
口①①口 |----|
口口口口
①口口①

口口口口
口④口口
口口③口 |②--③|
口②口口 |--④-|
7
①④口① |①---|
口口③口 |----|
①②口① |②--③|
口口口口 |--④-|
8
口④口口 |①---|
①口③① |----|
口②口口 |②--③|
口①①口 |--④-|
9
口口口口 |①--②|
③口口③ |--③-|
②口口②
口①①口

⑤口口⑤
口口口口
口口口口 |④--⑤|
④⑥⑥④ |--⑥-|
10
口③②口 |①-②③|
⑤⑦⑥④ |④⑤⑥⑦|
①口口①
口口口口

口口口口
口口口口
⑮⑬⑫⑭ |⑧⑨⑩⑪|
⑨⑪⑩⑧ |⑫⑬⑭⑮|
11
①①①① |①---|
②②②② |②---|
口口口口
口口口口

⑤⑤口口
口口口口
口口④④ |③---④-|
③③口口 |--⑤---|
12
口口④④ |①---②-|
③③口口 |--③---|
②②口口 |④---|
⑤口①① |⑤---|
13
②②口口 |①-②-|
口③③① |③---|
口③③口
口口②②

口口④④
⑤口口⑤
⑤口口⑤ |--④-|
④④口口 |⑤---|
14
①①口口 |--①-|
口②②③ |②---|
口②②③ |----|
口口①① |③---|
15
①口①口 |①---|
②口②⑤ |②---|
口④口口 |③-④-|
⑥口③口 |⑤-⑥-|
16
①口①口 |①-②-|
②口②口 |--③-|
口④口④ |--④-|
口③口③ |----|
17
口口口口 |①---|
口②口② |②---|
①口①口
口口口口

③口口口
口口④口
⑥口口口 |③-④-|
口口⑤口 |⑤-⑥-|
18
③口③口 |①-②-|
口①口① |--③-|
口②口② |----|
口口口口 |----|
19
口①口口 |①---|
⑤②⑥① |②---|
③口口② |③-④-|
口口口④ |⑤-⑥-|
20
口①口口 |①-②-|
口②口① |--③-|
③④口② |--④-|
口口③④ |----|
21
口口口口 |①---|
口口口口 |②---|
口口①②
①②口口

口口③口
③口⑤口
⑤口④口 |③---|
④口口口 |④-⑤-|
22
口口④① |①-②-|
④①口② |③-④-|
口②口③ |----|
口③口口 |----|
23
①②口口 |①---|
③口⑤口 |②---|
口①②口 |③-④-|
口口④⑥ |⑤-⑥-|
24
②①口口 |①-②-|
口③④口 |--③-|
口②①口 |--④-|
口口③④ |----|
25
口口口口 |①---|
②口口② |②---|
①口口①
口口口口

④口口④
口口口口
⑤口口⑤ |--③-|
③口口③ |④-⑤-|
26
口④④口 |①-②-|
①②②① |③-④-|
口口口口 |----|
口③③口 |----|
27
①口口② |①---|
口①②口 |②---|
③口口⑥ |③-④-|
口④⑤口 |⑤-⑥-|
28
口口口口 |①-②-|
口②①口 |--③-|
口③③口 |----|
口口口口 |----|
29
①口口① |①---|
②③③② |--②-|
⑤口口④ |--③-|
④口口⑤ |④-⑤-|
30
口口口口 |①-②-|
③口口③ |--③-|
口②①口 |----|
口①②口 |----|
31
①口①口 |①---|
②口②口 |②---|
口口口口
口口口口

⑥④口口
口口口口
口口口口 |③-④-|
口口⑤③ |⑤-⑥-|
32
④口④口 |①-②-|
口①口① |--③-|
②口②口 |--④-|
口③口③ |----|
33
③口口① |①---|
口②④⑤ |②---|
③口口① |③---|
口②④⑤ |④-⑤-|
34
口口①③ |①-②-|
②口口口 |--③-|
口口①③ |----|
②口口口 |----|
35
口②口口 |①---|
口口口② |②---|
①口口口
口口①口

④口口口
口口口口
口口口口 |--③-|
口口⑤③ |④-⑤-|
36
④①口口 |①-②-|
②口④① |--③-|
口③②口 |--④-|
口口口③ |----|
37
口口口② |①---|
口②口口 |②---|
口口①口
①口口口

口口④口
④口口口
口口⑤③ |--③-|
⑤③口口 |④-⑤-|
38
口口口② |①-②-|
口②③① |③-④-|
③①口④ |----|
口④口口 |----|
39
⑤①⑥① |①---|
口②口② |②---|
口口④口 |③-④-|
③口口口 |⑤-⑥-|
40
④口④口 |①-②-|
口①口① |--③-|
口②口② |--④-|
③口③口 |----|
41
口口口口 |①---|
③⑥⑤③ |②---|
①②②① |③-④-|
口④④口 |⑤-⑥-|
42
⑥①②⑥ |①-②-|
⑤口口⑤ |--③-|
④③③④ |--④-|
口口口口 |⑤-⑥-|
43
口①①口 |①---|
口④③口 |②---|
⑤②②⑥ |③-④-|
口口口口 |⑤-⑥-|
44
口口口口 |①---|
口口口口 |----|
口口口口
口①①口

口③③口
口口口口
口②②口 |--②-|
口④④口 |③-④-|
45
③口口③ |①---|
口①①口 |②-③-|
口口口口 |----|
②口口② |----|
46
口口口口 |①---|
①④口口 |②---|
②口③口 |③---|
口口口口 |④---|
47
口②②口 |①---|
口口口① |②---|
口④口口 |③---|
③口口口 |④---|
48
口②口口 |①---|
①口口口 |----|
口口口口 |②---|
口③口口 |③---|
49
③口②② |①---|
④③①① |②---|
口④口⑤ |③-④-|
口口⑤口 |--⑤-|
50
②口口口 |①---|
口④口⑤ |②---|
口③口⑤ |③-④-|
①口口口 |--⑤-|
51
口口口口 |----|
口口口口 |----|
口口口② |①---|
口口①口 |②---|
52
口口口② |①---|
口口①口 |②---|
口④口口 |③---|
③口口口 |④---|
53
①①④④ |①---|
口口口口 |②-③-|
口口②口 |④---|
口口③口 |----|
54
口口口口 |①-②-|
口口口口 |③-④-|
⑤③④⑥ |⑤-⑥-|
⑦①②⑧ |⑦-⑧-|
55
口①①口 |①---|
口口口口 |----|
口②⑤口 |②-③-|
口③④口 |④-⑤-|
56
口④④口 |①-②-|
①③③② |--③-|
口口口口 |--④-|
口口口口 |----|
57
口口口口 |①---|
①口口① |②---|
②③⑥② |③-④-|
口④⑤口 |⑤-⑥-|
58
④①①④ |①---|
口口口口 |②-③-|
口口口口 |--④-|
②⑤口③ |⑤---|
59
口③③口 |①---|
口①口② |----|
口口口② |②---|
口口口口 |③---|
60
口口口口 |①---|
①口口口 |②---|
①④④口 |③---|
③②②③ |④---|
61
口④④口 |①---|
口①①口 |----|
口口口口 |②-③-|
口②③口 |--④-|
62
口口口口 |①---|
②口口口 |②---|
①口口③ |③---|
口口口④ |④---|
63
①口口① |①---|
口②②⑤ |②---|
口口④口 |③--④|
口口口③ |--⑤-|
64
口口口口 |①--②|
②②⑤⑤ |--③-|
③③⑥⑥ |④--⑤|
①①④④ |--⑥-|
65
①④①④ |①---|
③口③口 |②---|
口口口口 |③---|
⑤②⑤② |④-⑤-|
66
①④①④ |①-②-|
口②口② |--③-|
口口口口 |--④-|
口③口③ |----|
67
④口①口 |①---|
②⑤③口 |②---|
口④口① |③-④-|
口②⑤③ |--⑤-|
68
③口②口 |①-②-|
①口口口 |--③-|
口③口② |----|
口①口口 |----|
69
口口①口 |①---|
①口口口 |②---|
口口口②
口②口口

口口⑥④
⑥④③口
③口⑤口 |③-④-|
⑤口口口 |⑤-⑥-|
70
口口口④ |①-②-|
口④③① |--③-|
③①口② |--④-|
口②口口 |----|
71
①③②口 |①---|
口口⑤口 |②---|
口④口口 |③---|
口①③② |④-⑤-|
72
口③②口 |①-②-|
③口口② |③-④-|
①口口④ |----|
口①④口 |----|
73
①口口② |①---|
④⑤⑥③ |②---|
③⑥⑤④ |③-④-|
②口口① |⑤-⑥-|
74
口①②口 |①-②-|
④口口④ |--③-|
③口口③ |--④-|
口②①口 |----|
75
③③③口 |①---|
④④④口 |②---|
口②②② |③-④-|
①①①口 |----|
76
口⑦⑥⑤ |①-②-|
口口口口 |③-④-|
①③②④ |--⑤-|
①③②④ |⑥-⑦-|
77
口口口口 |①---|
①口①口 |②---|
口口口口
口②口②

④④口④
⑤③⑤⑤
⑥⑥③⑥ |③-④-|
口口口口 |⑤-⑥-|
78
口口口口 |①---|
口口口口 |----|
口口口口
①口①①

口口口口
口口口口
③②②③ |--②-|
口④④口 |③-④-|
79
①①①① |①---|
③③③③ |②-③-|
口口口口 |----|
②口口② |----|


不确定度: 0

最終更新:2013年01月24日 03:42