city talk
Half-Life

ADVANCED

Level: 6
BPM: 141
Notes: 355

1
口口口口 |----|
口口口口 |----|
口口口口 |----|
口口口口 |----|
2
口口口口 |①---|
口④口④ |----|
口口③口 |②--③|
口②口① |--④-|
3
口口口口 |----|
口口口口 |----|
口口口口 |----|
口口口口 |----|
4
口口口口 |①---|
⑤口⑤口 |②---|
口④口口 |③--④|
①口③② |--⑤-|
5
①②③口 |--①-|
⑤口⑤口 |②-③-|
口④口④ |④---|
口口口口 |⑤---|
6
口口口口 |①---|
口⑤口⑤ |②---|
口口④口 |③--④|
②③口① |--⑤-|
7
①口②口 |--①-|
口⑤口⑥ |②-③-|
④口③口 |--④-|
口口口口 |⑤-⑥-|
8
口口口口 |①---|
⑤口⑤口 |②---|
口④口口 |③--④|
①口③② |--⑤-|
9
口口口口 |----|
口口口口 |----|
口口口口 |----|
口口口口 |----|
10
①口③② |①---|
口④口口 |②---|
⑤口⑤口 |③--④|
口口口口 |--⑤-|
11
口口口口 |--①-|
口③口④ |②-③-|
⑥口⑤口 |--④-|
口②口① |⑤-⑥-|
12
②③口① |①---|
口口④口 |②---|
口⑤口⑤ |③--④|
口口口口 |--⑤-|
13
①口口口 |----|
③口②口 |--①-|
⑤口④口 |②-③-|
口口口口 |④-⑤-|
14
口口口② |①---|
口③④口 |--②-|
口⑤口口 |③-④⑤|
口口①口 |----|
15
④⑦口⑦ |--①-|
口⑥口③ |②-③-|
口口⑤② |④-⑤⑥|
口③②① |--⑦-|
16
口③④③ |①---|
②口②口 |②---|
口①口① |③--④|
口口口⑤ |--⑤-|
17
③口口口 |①-②-|
口口口② |③---|
①口口口 |----|
④口④口 |--④-|
18
口口口口 |①---|
②口③② |②---|
⑥口④口 |③-④-|
口①⑤① |⑤-⑥-|
19
口口⑤口 |①-②-|
口⑥②口 |③-④-|
口①⑦③ |--⑤-|
口口④口 |⑥-⑦-|
20
口②口口 |--①-|
③⑤①口 |②-③-|
口④口口 |--④-|
口口口口 |--⑤-|
21
①②①口 |①---|
③口③口 |②---|
口口口口 |③---|
④口④口 |④---|
22
⑤口口口 |--①-|
①④④① |②-③④|
③②②③ |----|
口口口口 |--⑤-|
23
口口③口 |①-②-|
⑥④⑤④ |③--④|
口口③口 |--⑤-|
①口口② |⑥---|
24
⑥口⑤口 |①---|
口④③④ |②-③④|
⑥口⑤口 |--⑤-|
口①②① |--⑥-|
25
口①②① |----|
口口口口 |----|
口口口口 |--①-|
口口口口 |②---|
26
口口口口 |①---|
口①口口 |②---|
口②口口
口①口口

口⑤口④
口口口口
③⑥③口 |③-④-|
口口口口 |⑤-⑥-|
27
④口④口 |①-②-|
口③②口 |--③-|
⑤⑥⑤① |④-⑤-|
口口口口 |--⑥-|
28
⑥口⑥口 |①-②-|
①口①⑤ |--③-|
④口口口 |④-⑤-|
②口②③ |--⑥-|
29
⑤口口口 |--①-|
①②③④ |②-③-|
④③②① |--④-|
口口口口 |⑤---|
30
口口①口 |----|
口口口口 |①---|
口口②口 |----|
口口口口 |②---|
31
口口口口 |----|
口②口③ |①---|
①口口口 |--②-|
口口口口 |③---|
32
口口口口 |----|
①②口口 |①---|
口口口口 |--②-|
口③口③ |③---|
33
口①②① |----|
口口④口 |①---|
口口③口 |②-③-|
口口口口 |④---|
34
口口口口 |----|
③口③口 |①---|
口②口口 |--②-|
①口①口 |③---|
35
口口口口 |--①-|
口①口② |②--③|
口口⑤口 |--④-|
口④口③ |⑤---|
36
①②①口 |--①-|
⑤⑥口口 |②-③-|
口口⑦口 |④-⑤-|
口③④③ |⑥-⑦-|
37
口口口口 |①-②-|
口口③② |③-④-|
口④口①
口口口口

口口口口
口⑥⑦⑥
⑤口口口 |⑤---|
口口口口 |⑥-⑦-|
38
口②①⑤ |①---|
④③④⑥ |②-③-|
口②①口 |④---|
口口口口 |⑤-⑥-|
39
⑦口⑦口 |①-②-|
口口⑥口 |③-④-|
口⑥⑤④ |⑤-⑥-|
①②④③ |--⑦-|
40
口口口口 |①-②-|
口①口口 |--③-|
②③②③ |--④-|
口⑤④⑤ |--⑤-|
41
③④⑤口 |①-②-|
口②口② |--③-|
口口①⑥ |④-⑤-|
口口口口 |--⑥-|
42
口口口口 |①---|
口口⑤① |②-③-|
口口④口 |--④-|
②③口口 |⑤---|
43
口③②③ |①-②-|
口①④① |③---|
口⑤⑥⑤ |④-⑤-|
口口口口 |--⑥-|
44
口口口口 |①---|
口口口口 |----|
口③口③ |--②-|
②①②① |③---|
45
口口口口 |①---|
②②②② |②---|
①口①口
口口口口

③③③③
口口口口
口④⑤④ |③---|
口口口口 |④-⑤-|
46
口口口⑤ |①---|
口②①⑥ |②-③-|
④③④口 |④---|
口②①口 |⑤-⑥-|
47
⑦口⑦口 |①-②-|
口口⑥口 |③-④-|
口⑥⑤④ |⑤-⑥-|
①②④③ |--⑦-|
48
口口口口 |①-②-|
口①口口 |--③-|
②③②③ |--④-|
口⑤④⑤ |--⑤-|
49
口④⑤口 |①-②-|
口②③② |--③-|
口口①⑥ |④-⑤-|
口口口口 |--⑥-|
50
口口口口 |①---|
口口口① |--②-|
口口口口
口②口②

口口口口
口⑤④⑤
口口③口 |--③-|
口口口口 |④-⑤-|
51
口②①② |①-②-|
口④⑤④ |--③-|
口⑥⑦⑥ |④-⑤-|
口口③口 |⑥-⑦-|
52
口口口口 |①---|
口口口口 |----|
口口口口
口①口①

口口口口
口口口口
②③③② |②-③-|
口④④口 |--④-|
53
⑥⑥⑥⑥ |①-②-|
②①①③ |③-④-|
口口口口 |⑤---|
⑤口口④ |⑥---|


不确定度: 0

最終更新:2013年03月23日 20:38