city talk
Half-Life

EXTREME

Level: 8
BPM: 141
Notes: 472

1
口口口口 |----|
口口口口 |----|
口口口口 |----|
口口口口 |----|
2
口口①口 |①---|
③①②① |----|
口④①口 |②--③|
③口②口 |--④-|
3
口口口口 |----|
口口口口 |----|
口口口口 |----|
口口口口 |----|
4
口②口口 |①---|
口①口口 |②---|
①②①口
口①口口

口口④③
口⑥⑤⑥
口口④③ |③--④|
口口口口 |⑤-⑥-|
5
⑦⑧口⑪ |--①-|
⑥⑨口⑩ |②-③-|
⑤口口口 |④⑤⑥⑦|
④②③① |⑧⑨⑩⑪|
6
口口②口 |①---|
口口①口 |②---|
口①②①
口口①口

③④口口
⑥⑤⑥口
③④口口 |③--④|
口口口口 |⑤-⑥-|
7
口口口③ |--①-|
口口口② |②-③-|
口口口④ |--④-|
⑤口口① |--⑤-|
8
口①口口 |①---|
①②①口 |②---|
口①口口
口②口口

口口口口
口口④③
口⑥⑤⑥ |③--④|
口口④③ |⑤-⑥-|
9
①口口口 |--①-|
③口口口 |②-③-|
②口口口 |④-⑤-|
④⑥⑤⑦ |⑥-⑦-|
10
口口①口 |①---|
口①②① |②---|
口口①口
口口②口

口口口口
③④口口
⑥⑤⑥口 |③--④|
③④口口 |⑤-⑥-|
11
⑤口口① |--①-|
口口口④ |②-③-|
口口口② |--④-|
口口口③ |--⑤-|
12
口②口口 |①---|
口①口口 |②---|
①②①口
口①口口

口口④③
口⑥⑤⑥
口口④③ |③--④|
口口口口 |⑤-⑥-|
13
口口⑤口 |----|
口③②口 |--①-|
口⑤口口 |②-③-|
口①④口 |④-⑤-|
14
口①口⑤ |①---|
④口口口 |--②-|
口口①③ |③-④⑤|
②口口口 |----|
15
口口④口 |--①-|
⑦②⑦③ |②-③-|
口③⑥② |④-⑤⑥|
口①⑤① |--⑦-|
16
口①口口 |①---|
口②口③ |②---|
口①口⑤ |③--④|
口口口④ |--⑤-|
17
口口口口 |①-②-|
③口①口 |③---|
口②口口
③口①口

口口口口
口口口口
口④口④ |----|
口口口口 |--④-|
18
⑤口口口 |①---|
口④②③ |②---|
口口①口 |③---|
口③②④ |④-⑤-|
19
口口①口 |①-②-|
④⑦④口 |③-④-|
口③⑥② |--⑤-|
④⑤④口 |⑥-⑦-|
20
口④口口 |--①-|
口⑤③⑤ |②-③-|
口②口口 |--④-|
口口①口 |--⑤-|
21
④③①④ |①---|
②口②口 |②---|
④③①④ |③---|
口口口口 |④---|
22
⑤口口口 |--①-|
③②③① |②-③④|
口口口口 |----|
①④②④ |--⑤-|
23
口④②④ |①-②-|
⑥⑤⑤⑥ |③--④|
③①口① |--⑤-|
⑦口口⑦ |⑥--⑦|
24
口口口口 |①---|
口口口口 |②-③④|
③口④②
口①①口

⑥⑥⑥⑥
口口口口
口口口口 |--⑤-|
⑤⑤⑤⑤ |--⑥-|
25
①口①口 |----|
口口口口 |----|
口口口口 |--①-|
口②口② |②---|
26
口①口① |①---|
口口口口 |②---|
口口口口
②口②口

口⑥⑤口
③④口③
⑤口口⑥ |③-④-|
口口口④ |⑤-⑥-|
27
②口口① |①-②-|
口口口口 |--③-|
口①②口
③口③口

口口口口
④口④口
口⑤口口 |④-⑤-|
口⑥口⑥ |--⑥-|
28
③③③③ |①-②-|
④①④① |--③-|
口⑤②⑤ |④-⑤-|
⑥⑥⑥⑥ |--⑥-|
29
口③②① |--①-|
口口口口 |②-③-|
①②③口
口口口口

⑤口口口
口④④口
口⑥口口 |--④-|
口口口口 |⑤-⑥-|
30
口①③口 |①-②-|
口口⑦⑤ |③-④-|
口口②④ |⑤-⑥-|
口⑧⑥口 |⑦-⑧-|
31
⑧⑥④口 |①-②-|
③①口口 |③-④-|
口⑦⑤③ |⑤-⑥-|
②口口口 |⑦-⑧-|
32
口口口口 |①-②-|
①③⑤⑦ |③-④-|
口口口口 |⑤-⑥-|
⑦②④⑥ |⑦---|
33
②口口① |①---|
①口②口 |②---|
③口⑤口 |③-④-|
口口④口 |⑤---|
34
①口①口 |----|
口③口口 |①---|
口②口口 |--②-|
口口口口 |③---|
35
⑤口①口 |--①-|
口口④口 |②--③|
口口②口 |--④-|
②口③口 |⑤---|
36
口①⑤口 |--①-|
③⑥口口 |②-③-|
⑦②口⑥ |④-⑤-|
④⑤口② |⑥-⑦-|
37
①⑥⑤口 |①-②-|
口口⑦③ |③-④-|
口口④口 |⑤---|
口⑥口② |⑥-⑦-|
38
口口②口 |①---|
①口口① |②-③-|
口③口口
口口②口

口口⑥口
口⑤口口
④口⑥④ |④---|
口⑤口口 |⑤-⑥-|
39
⑤③⑤③ |①-②-|
①⑦①口 |③-④-|
口②口② |⑤-⑥-|
④⑥④⑥ |--⑦-|
40
③③③③ |①-②-|
口口②口 |--③-|
口②①口
口口口口

口口口口
口④口口
⑤口⑤口 |--④-|
口④口口 |--⑤-|
41
口①口口 |①-②-|
②⑤②⑥ |--③-|
口①口口 |④-⑤-|
口④口③ |--⑥-|
42
口③口③ |①---|
口口口口 |②-③-|
口②①②
口口口口

④口口口
口口口口
⑤口⑥口 |--④-|
口口口口 |⑤-⑥-|
43
口口①口 |①-②-|
口②口⑤ |③-④-|
口⑦⑥⑦ |⑤-⑥-|
口③口④ |--⑦-|
44
②③口口 |①---|
口口①口 |----|
口口口口 |--②-|
口口②③ |③---|
45
口口口① |①---|
②②②口 |②---|
口口口口
①口口口

口④口口
口口⑤口
口③③③ |③---|
口④口口 |④-⑤-|
46
口口②口 |①---|
①口口① |②-③-|
口③口口
口口②口

口口⑥口
口⑤口口
④口⑥④ |④---|
口⑤口口 |⑤-⑥-|
47
口③口③ |①-②-|
①口①口 |③-④-|
口②口②
④口④口

⑤口⑤口
⑨口口口
口⑧⑦⑧ |⑤-⑥-|
口⑥口⑥ |⑦-⑧⑨|
48
③③③③ |①-②-|
口①口② |--③-|
口口口口
口口口口

口口口口
口④口口
⑤口⑤口 |--④-|
口④口口 |--⑤-|
49
①口①口 |--①-|
口④口⑤ |--②-|
口口口口 |③-④-|
口③口② |--⑤-|
50
口②口② |①---|
④口③口 |--②-|
口口①口 |--③-|
⑤口口口 |④-⑤-|
51
口⑤口④ |①-②-|
⑥⑦⑥口 |--③-|
口②口③ |④-⑤-|
口口①口 |⑥-⑦-|
52
口③③口 |①---|
口口口口 |----|
①口①口 |②-③-|
②④④② |--④-|
53
①口口① |①-②-|
③④④③ |③-④-|
口②②口
口口口口

⑥⑥⑥⑥
口口口口
⑤口口⑤ |⑤---|
口口口口 |⑥---|


不确定度: 0

最終更新:2013年03月23日 20:37