カーニバる?
ナオト・インティライミ

ADVANCED

Level: 7
BPM: 69-165
Notes: 453

BPM: 69
1
口口②② |----|
①③口口 |---①|
口口④口 |②--③--④-|
⑤⑤口口 |⑤---|
2
③③口口 |①-②-|
口②口口 |③---|
口口①①
口口口口

⑦口口口
口口口⑥
⑤口口口 |④-⑤-|
口口口④ |⑥-⑦-|
3
口①①口 |①--②|
口②③口 |③--④--⑤-|
④口口⑤
口口口口

⑨口口⑨
口⑦⑧口
口口口口 |⑥--⑦--⑧-|
口⑥⑥口 |⑨---|
4
口口口口 |①-②③|
①口口① |④-⑤⑥|
口②⑥口
④⑤③口

口口口口
⑩⑦口⑨
⑧口口口 |⑦-⑧-|
口口口口 |⑨-⑩-|

BPM: 165
5
口口口口 |①--②|
④口①⑤ |--③-|
口②口口 |--④-|
口口③口 |⑤---|
6
口口口口 |①--②|
口①口口 |--③-|
⑤口②④ |--④-|
口③口口 |⑤---|
7
口口口口 |--①-|
①①③③ |②---|
口口口口 |--③-|
④④②② |④---|
8
④口③④ |--①-|
⑤②口⑤ |②-③-|
口口①口 |--④-|
口口口口 |⑤---|
9
口口口口 |①---|
口①①口 |----|
口口口口 |----|
口口口口 |----|
10
④口口④ |--①-|
口③口口 |-②--|
口①②口 |③---|
口口口口 |④---|
11
口口口口 |①---|
①口口① |----|
口②口口 |----|
口口口口 |--②-|
12
口②①口 |①-②-|
③④④口 |--③-|
⑤⑥⑥口 |④-⑤-|
⑦口口口 |⑥-⑦-|
13
②口口② |①---|
口口口口 |②---|
③口口口 |----|
口①①口 |--③-|
14
口口口口 |①--②|
⑤口①⑤ |--③-|
口②③口 |④---|
口④口口 |⑤---|
15
④口口④ |①---|
口②②口 |----|
①③③① |②--③|
口口口口 |--④-|
16
口①②口 |----|
口③④口 |----|
口⑤⑥口 |①②③④|
口⑦⑧口 |⑤⑥⑦⑧|
17
口口口④ |①---|
③口口口 |--②-|
口口口② |③-④-|
①口口口 |----|
18
③口口口 |----|
口口口② |--①-|
①口口口 |②-③-|
口口口口 |----|
19
口⑤口口 |----|
口口口口 |--①-|
口③④口 |②-③-|
口①②口 |④-⑤-|
20
口口口口 |①--②|
口口口① |--③-|
②⑤⑤口 |④---|
④口口③ |⑤---|
21
口③④口 |①---|
②①①⑤ |--②-|
口口口⑥ |③-④-|
口口口口 |⑤-⑥-|
22
口口口口 |①--②|
口③④口 |--③-|
②口口口 |④---|
口口①口 |----|
23
口⑥⑦口 |--①②|
④⑧口⑤ |③-④-|
口①②口 |⑤-⑥-|
口③口口 |⑦-⑧-|
24
①④⑤口 |--①-|
口⑥⑦② |②-③-|
③⑧⑨口 |④⑤⑥⑦|
口⑩⑪口 |⑧⑨⑩⑪|
25
口口口④ |①---|
③口口口 |--②-|
口口口② |③-④-|
①口口口 |----|
26
③口口口 |----|
口口口② |--①-|
①口口口 |②-③-|
口口口口 |----|
27
口⑤口口 |----|
口口口口 |--①-|
口③④口 |②-③-|
口①②口 |④-⑤-|
28
口口口口 |①--②|
口口口① |--③-|
②⑤⑤口 |④---|
④口口③ |⑤---|
29
口②③口 |①---|
④①①⑤ |--②③|
⑥口口⑦ |④-⑤-|
口口口口 |⑥-⑦-|
30
口口口口 |①--②|
口②口口 |--③-|
口口口口 |④---|
①口③④ |----|
31
口①①口 |①---|
②口口② |--②-|
③④④③ |③---|
口口口口 |--④-|
32
口口口口 |--①-|
口口口口 |--②-|
②口口③ |③---|
②①①③ |----|
33
①口口① |①---|
口②②口 |--②-|
④③③④ |③---|
口口口口 |--④-|
34
口口口口 |--①-|
口口口口 |--②-|
口②③口 |③---|
①②③① |----|
35
口口口口 |①---|
①④④① |--②-|
③口口② |③-④-|
②⑤⑤③ |--⑤-|
36
⑤①②⑥ |----|
⑦③④⑧ |①②③④|
⑨口口⑩ |⑤⑥⑦⑧|
⑪口口⑫ |⑨⑩⑪⑫|
37
口口口口 |①---|
口口口② |----|
②口口口 |②---|
口①口口 |----|
38
口口②口 |①---|
②③①口 |②---|
口①口③ |③---|
口④口口 |④---|
39
口口口⑤ |①---|
②③④口 |②-③-|
口口①口 |④---|
口口口口 |⑤---|
40
①口口口 |①---|
口③③口 |--②-|
口②②口 |----|
口口口口 |③---|
41
①口口① |①---|
口口口口 |----|
口②②口 |②---|
口口口口 |----|
42
口②口口 |①---|
口口①② |②---|
①口口口
口口口口

口口口口
④口⑤口
口③口口 |③---|
口口③口 |④-⑤-|
43
口口口口 |①---|
口口口口 |②---|
①口口口
口②口口

口口口口
口口口口
④口口口 |③---|
口口口③ |④---|
44
口口口口 |①-②-|
②口①① |--③-|
口④④口 |--④-|
③口口③ |----|
45
口口口口 |①---|
口口①② |----|
②口口口 |②---|
口①口口 |----|
46
口口②口 |①---|
②③①口 |②---|
口①口③ |③---|
口④⑤口 |④-⑤-|
47
口口口④ |①---|
②口③口 |②---|
口①口口 |③---|
口口口口 |④---|
48
①口①口 |①---|
口②②口 |--②-|
④③③④ |--③-|
口口口口 |--④-|
49
①口口① |①---|
口口口口 |----|
口②②口 |②---|
口口口口 |----|
50
口②③口 |①---|
③口①② |②-③-|
①口⑦口 |--④-|
④⑥口⑤ |⑤-⑥⑦|
51
④④⑤⑤ |①---|
②①口② |②---|
口③口口 |③---|
口口③口 |④-⑤-|
52
⑦口口⑦ |--①-②-|
⑤①④⑥ |③-④-⑤-|
口③②口 |⑥---|
口口口口 |⑦---|
53
口口口口 |①---|
口口口② |----|
②口①口 |②---|
口①口口 |----|
54
口口②口 |①---|
②③①口 |②---|
口①口③ |③---|
口④⑤口 |④-⑤-|
55
口口口④ |①---|
②口③口 |②---|
口①口口 |③---|
口口口口 |④---|
56
①口口⑧ |①-②-|
⑦⑦口⑥ |③-④-|
⑤⑤口④ |⑤-⑥-|
③③口② |⑦-⑧-|
57
①口①口 |①---|
口口口口 |----|
口②②口 |②---|
口口口口 |----|
58
口②口口 |①---|
④口①② |②---|
①③口口 |③---|
口口③口 |④---|
59
口口口口 |①---|
口口口口 |②---|
④④口① |③---|
口②③③ |④---|
60
口口④④ |①---|
②②①① |②-③-|
⑤⑤③③ |--④-|
口口口口 |⑤---|
61
口口口口 |①---|
口口①② |----|
②口口口 |②---|
口①口口 |----|
62
口口②口 |①---|
②③①口 |②---|
口①口③ |③---|
口④⑤口 |④-⑤-|
63
口口口④ |①---|
②口③口 |②---|
口①口口 |③---|
口口口口 |④---|
64
①口口口 |①---|
口⑥口口 |--②-|
口④⑤口 |③-④-|
口②③口 |⑤-⑥-|
65
①口口① |①---|
口口口口 |----|
口②②口 |②---|
口口口口 |----|
66
③②口口 |①---|
口口①② |②---|
①口⑤⑤ |③---|
④④③口 |④-⑤-|
67
④④⑤⑤ |①---|
①①口③ |②---|
②③口口 |③---|
口口口② |④-⑤-|
68
口口口口 |①-②-③-|
④②③口 |④---|
口口口①
口口口口

口口口口
口口口口
口⑦⑥⑧ |⑤-⑥-⑦-|
⑤口口口 |⑧---|
69
②④⑤③ |①-②-③-|
①⑥⑦口 |④-⑤-⑥-|
⑧口口⑧ |⑦---|
口口口口 |⑧---|


不确定度: 0

最終更新:2013年03月23日 20:50