カーニバる?
ナオト・インティライミ

EXTREME

Level: 9
BPM: 69-165
Notes: 666

BPM: 69
1
口口⑤口 |----|
口⑤口② |---①|
①③口④ |②--③--④-|
口②口口 |⑤---|
2
口口口口 |①-②③|
④③④口 |④-⑤-|
口口②口
⑤①①口

口口⑥⑥
口⑨⑨口
⑧口口⑧ |⑥-⑦-|
口⑦⑦口 |⑧-⑨-|
3
①口②① |①--②|
口口口③ |③--④--⑤-|
口④口口
口口口⑤

⑨口口⑨
⑧口口口
口口⑦口 |⑥--⑦--⑧-|
⑥口⑥口 |⑨---|
4
口口⑥口 |①-②③|
①②②口 |④-⑤⑥|
③⑤④口
口④⑤口

口⑦口口
⑧口口⑨
口⑨口⑩ |⑦-⑧-|
口口口⑦ |⑨-⑩-|

BPM: 165
5
①口口② |①--②|
口③④口 |--③④|
①口⑤⑤ |--⑤-|
口口⑥⑥ |⑥---|
6
口②①口 |①--②|
④口口③ |--③④|
⑤⑤口口 |--⑤-|
⑥⑥口口 |⑥---|
7
①口口① |--①-|
口③③口 |②---|
口口②② |--③-|
④④口口 |④---|
8
③⑤口⑤ |--①-|
②口口③ |②-③-|
①④④② |--④-|
口口口① |⑤---|
9
⑧口⑦⑥ |①--②|
①口②⑨ |③-④-|
③口口④ |⑤-⑥⑦|
⑤口口口 |⑧-⑨-|
10
⑨⑨⑧⑦ |①-②③|
①口口口 |④-⑤-|
④口③② |⑥-⑦⑧|
⑥口口⑤ |⑨---|
11
口口口⑨ |①--②|
③①②口 |③-④-|
⑤口①④ |⑤-⑥⑦|
⑧口⑦⑥ |⑧-⑨-|
12
①口口口 |①-②③|
④⑥③② |④-⑤-|
口口⑥⑤ |⑥---|
口⑦⑦口 |⑦---|
13
口①①⑨ |①--②|
③口②口 |③-④-|
⑤口口④ |⑤-⑥⑦|
⑧口⑦⑥ |⑧-⑨-|
14
①口⑨口 |①-②③|
④⑨③② |④-⑤-|
⑥口口⑤ |⑥-⑦⑧|
口口⑧⑦ |⑨---|
15
⑨口口⑨ |①--②|
③口②口 |③-④-|
⑤①①④ |⑤-⑥⑦|
⑧口⑦⑥ |⑧-⑨-|
16
口①②口 |--①②|
口③口④ |③-④-|
⑥⑤⑩⑨ |⑤⑥⑦⑧|
⑧⑦⑫⑪ |⑨⑩⑪⑫|
17
⑥口③② |①--②|
⑥①①⑤ |③-④-|
口④口⑤ |⑤-⑥-|
口④口口 |----|
18
⑥口⑤口 |①--②|
⑥口⑤口 |③-④-|
①④口口 |⑤-⑥-|
口④③② |----|
19
⑦④口⑥ |①--②|
口⑧⑤口 |③-④-|
③口②口 |⑤-⑥-|
①口口口 |⑦-⑧-|
20
④⑤⑤③ |①--②|
②⑤⑤① |--③-|
口④③口 |④---|
口②①口 |⑤---|
21
口口口⑦ |①--②|
⑧⑥口口 |③-④-|
①口⑤① |⑤-⑥-|
③④②口 |⑦-⑧-|
22
口①①口 |①--②|
⑦口⑥⑤ |--③-|
②②口⑧ |④-⑤⑥|
④④③③ |⑦-⑧-|
23
口口口口 |①-②③|
口⑨⑧口 |④-⑤-|
①③④口 |⑥-⑦-|
⑤⑦②⑥ |⑧-⑨-|
24
①口口口 |--①-|
③口口② |②-③-|
⑤④⑨⑧ |④⑤⑥⑦|
⑦⑥⑪⑩ |⑧⑨⑩⑪|
25
⑥口③② |①--②|
⑥①①⑤ |③-④-|
口④口⑤ |⑤-⑥-|
口④口口 |----|
26
⑥口⑤口 |①--②|
⑥口⑤口 |③-④-|
①④口口 |⑤-⑥-|
口④③② |----|
27
⑦④口⑥ |①--②|
口⑧⑤口 |③-④-|
③口②口 |⑤-⑥-|
①口口口 |⑦-⑧-|
28
④⑤⑤③ |①--②|
②⑤⑤① |--③-|
口④③口 |④---|
口②①口 |⑤---|
29
⑦口口⑧ |①--②|
⑨口口⑥ |③-④⑤|
①⑤口① |⑥-⑦-|
③口②④ |⑧-⑨-|
30
口①①口 |①--②|
⑦口⑥⑤ |--③-|
②②⑨⑧ |④-⑤⑥|
④④③③ |⑦-⑧⑨|
31
口④④① |①---|
口口口② |--②-|
①③口口 |③---|
②口③口 |--④-|
32
口口口口 |--①-|
②①①③ |--②-|
口口⑤④ |③---|
口③②口 |--④⑤|
33
口口①口 |①---|
④③②④ |--②-|
①②口口 |③---|
口口③口 |--④-|
34
①③②① |--①-|
口口口口 |--②-|
口口口口 |③---|
②口口③ |----|
35
①口口① |①---|
③⑤口② |--②-|
④①①④ |③-④-|
口②③⑤ |--⑤-|
36
口⑤⑨① |----|
⑥⑩②口 |①②③④|
口⑦⑪③ |⑤⑥⑦⑧|
⑧⑫④口 |⑨⑩⑪⑫|
37
①口口① |①---|
口口口口 |②---|
②口口口
口口口口

④口口口
口口口口
口口口口 |③---|
③口③口 |④---|
38
口②口口 |①---|
①②①② |②---|
口口口②
口口口口

⑥口⑤④
口口⑥口
③口③口 |③-④⑤|
③口③口 |⑥---|
39
④⑤口口 |①---|
口①④① |②-③-|
③口⑤② |④---|
口②③口 |⑤---|
40
③口②口 |①--②|
①口口④ |③-④-|
口口口①
口口口口

口口⑪⑩
口口口口
口⑤⑥口 |⑤⑥⑦⑧|
⑨⑦⑧口 |⑨-⑩⑪|
41
①口口口 |①---|
②①口口 |②---|
③口③口 |③---|
④口口口 |④---|
42
①口口口 |①---|
①口①② |②---|
口②口口
口②口口

口口⑤④
⑥口⑥口
③口口口 |③-④⑤|
③口口口 |⑥---|
43
口口口口 |①---|
口口口口 |②---|
口①口①
②口②口

口口口口
③④口口
口口口④ |③---|
口口口③ |④---|
44
③口②口 |①--②|
口口①④ |③-④-|
①口口口
口口口口

口口⑪⑩
口口口口
口⑤⑥口 |⑤⑥⑦⑧|
⑨⑦⑧口 |⑨-⑩⑪|
45
①口口口 |①---|
②①口口 |②---|
③口③口 |③---|
④口口口 |④---|
46
①口口口 |①---|
口①②口 |②---|
②口口口
口口口口

⑥口⑤④
口⑥口口
口③口口 |③-④⑤|
口口口③ |⑥---|
47
口口口口 |①---|
②口口① |②---|
①④③② |③---|
口③④口 |④---|
48
③口②口 |①--②|
口口口④ |③-④-|
口口口口
①口口①

口口⑪⑩
口口口口
口⑤⑥口 |⑤⑥⑦⑧|
⑨⑦⑧口 |⑨-⑩⑪|
49
①口口口 |①---|
②①口口 |②---|
③口③口 |③---|
④口口口 |④---|
50
①口④口 |①---|
⑦④①③ |②-③-|
②⑤③口 |--④-|
⑤②⑥口 |⑤-⑥⑦|
51
口口口① |①---|
口④口④ |②---|
③口③口 |③---|
⑤②⑤② |④-⑤-|
52
①②①② |--①-②-|
③⑦③⑦ |③-④-⑤-|
④⑤④⑤ |⑥---|
⑦⑥⑦⑥ |⑦---|
53
①口口① |①---|
口②②口 |----|
口口口口 |②---|
口口口口 |----|
54
口①口口 |①---|
①口②⑤ |②---|
④③⑤② |③---|
③④口口 |④-⑤-|
55
①口③口 |①---|
④①口口 |②---|
口口④口 |③---|
②③口② |④---|
56
⑧①口⑦ |①-②-|
⑥口⑦⑤ |③-④-|
④口⑤③ |⑤-⑥-|
②口③① |⑦-⑧-|
57
口口①口 |①---|
②口口口 |----|
口①口口 |②---|
口口口② |----|
58
口口③口 |①---|
③②⑤口 |②---|
⑤④①② |③---|
①口口④ |④-⑤-|
59
③①口④ |①---|
②③④① |②---|
口口口② |③---|
口④口③ |④---|
60
口①①口 |①---|
②口口④ |②-③-|
口口口口 |--④-|
③口口⑤ |⑤---|
61
①口口① |①---|
口口口口 |----|
口②②口 |②---|
口口口口 |----|
62
口②③口 |①---|
③口①⑤ |②---|
口④⑤② |③---|
①口④口 |④-⑤-|
63
①②口② |①---|
③①③口 |②---|
口④口④ |③---|
口口口口 |④---|
64
⑤口⑥口 |①---|
口①口④ |--②-|
口口①③ |③-④-|
②口口口 |⑤-⑥-|
65
口口口口 |①---|
①口②口 |----|
口口①口 |②---|
口②口口 |----|
66
①③③② |①---|
口口⑤① |②---|
②④口口 |③---|
④口⑤口 |④-⑤-|
67
④④⑤⑤ |①---|
②①口③ |②---|
③口口② |③---|
口①口口 |④-⑤-|
68
口口口口 |--①-②-|
④①①④ |③---|
⑤②②⑤ |--④-⑤-|
⑥③③⑥ |⑥---|
69
③①①③ |--①-②-|
④②②④ |③-④-⑤-|
⑤⑦⑦⑤ |⑥---|
⑥⑦⑦⑥ |⑦---|


不确定度: 0

最終更新:2013年03月23日 20:49