BRANDNEW DAYS
Purple Days

ADVANCED

Level: 6
BPM: 132
Notes: 407

1
口口口口 |----|
口口口口 |----|
口口口口 |----|
口口口口 |----|
2
口①①口 |①--②|
②口口② |--③-|
⑤③③口 |④---|
口④④口 |--⑤-|
3
口口口① |①--②|
②口口口 |--③-|
口口口口 |④---|
口口③④ |----|
4
①口口口 |①--②|
口口口② |--③-|
口口口口 |④---|
④③口口 |----|
5
口口口口 |①--②|
口①②口 |--③-|
⑤③口⑤ |④---|
④口口④ |⑤---|
6
口①①口 |①--②|
②口口② |--③-|
口③③口 |④---|
口④④口 |----|
7
口口口① |①--②|
口口③④ |--③-|
②口口口 |④---|
口口口口 |----|
8
①口口口 |①--②|
④③口口 |--③-|
口口口② |④---|
口口口口 |----|
9
口⑦口口 |①--②|
口⑤⑥口 |--③-|
口③④口 |④-⑤-|
①口口② |⑥-⑦-|
10
口口①口 |①--②|
②口口口 |--③-|
④口口③ |④---|
口口口口 |----|
11
口①口口 |①--②|
口口口② |--③-|
⑥③口⑥ |④⑤--|
口口④⑤ |⑥---|
12
口口①口 |①--②|
②口口口 |--③-|
⑥口③⑥ |④⑤--|
⑤④口口 |⑥---|
13
口口口口 |①---|
④口口④ |②---|
③①①③ |③---|
②口口② |④---|
14
①①①① |①---|
口②②口 |--②-|
口③③口 |③---|
口口口口 |----|
15
口⑦⑥口 |①--②|
①⑤④① |--③-|
②④⑤② |④-⑤-|
③⑥⑦③ |⑥-⑦-|
16
口口口口 |①--②|
①口口② |--③-|
口③④口 |④---|
口⑤⑥口 |--⑤⑥|
17
口口口口 |①---|
④③②口 |--②③|
口口口口 |④---|
口口口① |----|
18
①口口⑧ |①-②-|
⑦口口② |③-④-|
③口口⑥ |⑤-⑥-|
⑤口口④ |⑦-⑧-|
19
口①⑧口 |①-②-|
口⑦②口 |③-④-|
口③⑥口 |⑤-⑥-|
口⑤④口 |⑦-⑧-|
20
④口口⑤ |①---|
①口口① |②---|
口②②口 |③---|
③口口③ |④-⑤-|
21
口口口口 |①-②③|
口口口口 |----|
①口②③ |----|
口口口口 |----|
22
口①②口 |①-②-|
口口口③ |③-④-|
⑦口口④ |⑤-⑥-|
口⑥⑤口 |⑦---|
23
①口口口 |①-②-|
口②口口 |③-④-|
口口③⑥ |⑤-⑥-|
口⑦⑤④ |⑦---|
24
口①②口 |①-②-|
口③④口 |③-④-|
⑦⑤⑥⑧ |⑤-⑥-|
口口口口 |⑦-⑧-|
25
口口口口 |①-②③|
①口②③ |--④-|
口④口口 |⑤---|
口口⑤口 |----|
26
①口口② |①--②|
③口④口 |--③-|
口⑤口口 |④---|
口口口口 |--⑤-|
27
口口口口 |①--②|
口口口口 |--③-|
口口口①
②口口③

口口口口
口④④口
⑤口口⑤ |④---|
口口口口 |⑤---|
28
①口口① |①--②|
②口口② |--③-|
⑤③③口 |④---|
口④④口 |--⑤-|
29
口口口口 |①---|
口②③④ |--②③|
口口口① |④---|
口⑤⑤口 |--⑤-|
30
口②①口 |①--②|
口①②口 |--③-|
③口口④ |④---|
④口口③ |----|
31
②口口② |①---|
③口口③ |----|
口④口口 |②---|
口①①口 |③-④-|
32
口口口口 |①-②-|
⑤④③口 |--③-|
口口①② |④-⑤-|
口⑥口口 |--⑥-|
33
⑤⑥口口 |①-②-|
口口⑦④ |③-④-|
③口口口 |⑤---|
口口①② |⑥-⑦-|
34
口口口口 |①---|
口口口口 |----|
口①口口 |----|
口口口口 |----|
35
口口口口 |①--②|
①口口① |--③-|
②③③② |④---|
口④④口 |----|
36
口口口口 |①--②|
口①①口 |--③-|
③②②③ |④---|
④口口④ |----|
37
口口口口 |①---|
④口口④ |②---|
③口口③ |③---|
②①①② |④---|
38
①①①① |①---|
口口口口 |--②-|
口②③口 |③---|
口口口口 |----|
39
④⑤⑥⑦ |①--②|
③口口③ |--③-|
①口口① |④-⑤-|
②口口② |⑥-⑦-|
40
口口口口 |①--②|
口①②口 |--③-|
口③口口 |④---|
口口④口 |----|
41
口口口口 |----|
③口口③ |①---|
②口口② |②---|
①口口① |③---|
42
①①①① |①---|
口②③口 |--②-|
口口口口 |③---|
口口口口 |----|
43
口⑥⑦口 |①--②|
④口口⑤ |--③-|
①口口① |④-⑤-|
②③③② |⑥-⑦-|
44
①口口① |①--②|
口②②口 |--③-|
③口口③ |④---|
④口口④ |----|
45
口口口口 |----|
口口口口 |----|
口口口口 |----|
口口口口 |----|
46
口①①口 |①--②|
②口口② |--③-|
⑤③③口 |④---|
口④④口 |--⑤-|
47
口口口① |①--②|
②口口口 |--③-|
口口口口 |④---|
口口③④ |----|
48
①口口口 |①--②|
口口口② |--③-|
口口口口
口③口口

⑤口口口
口口口口
口口口口 |④---|
④口口口 |--⑤-|
49
口口口口 |①--②|
口①②口 |--③-|
⑤③口⑤ |④---|
④口口④ |⑤---|
50
⑤①①口 |①--②|
②口口② |--③-|
口③③口 |④---|
口④④口 |--⑤-|
51
口口口① |①--②|
口口③④ |--③-|
②口口口 |④---|
口口口口 |----|
52
①口口口 |①--②|
④③口口 |--③-|
口口口② |④---|
口口口口 |----|
53
口⑦口口 |①--②|
口⑤⑥口 |--③-|
口③④口 |④-⑤-|
①口口② |⑥-⑦-|
54
口口①⑤ |①-②-|
②⑥口口 |③-④-|
口口⑦③ |⑤-⑥-|
④口口口 |⑦---|
55
①⑤口口 |①-②-|
口口②⑥ |③-④-|
③⑦口口 |⑤-⑥-|
口口④口 |⑦---|
56
口口口口 |①-②-|
口①②口 |③-④-|
③⑦⑧④ |⑤-⑥-|
口⑤⑥口 |⑦-⑧-|
57
①③③② |①-②-|
④口口④ |----|
口⑤⑤口 |③--④|
口口口口 |--⑤-|
58
口④⑤口 |①-②-|
口⑥③口 |③-④-|
②口⑦口 |⑤-⑥-|
口①①口 |⑦---|
59
⑤口口④ |①-②-|
③口口⑥ |③-④-|
⑦口口② |⑤-⑥-|
①⑧口口 |⑦-⑧-|
60
口口口口 |①-②-|
口⑥口口 |--③-|
⑤④③口 |④-⑤-|
口口①② |--⑥-|
61
③口④④ |①-②-|
⑤⑤①② |--③-|
口口⑥⑥ |④-⑤-|
⑦⑦口口 |⑥-⑦-|
62
口口口口 |①---|
②口①② |--②-|
口①口口 |③---|
③口口③ |----|


不确定度: 0

最終更新:2013年03月23日 20:36